<?xml version="1.0" standalone="no"?>
<!DOCTYPE svg PUBLIC "-//W3C//DTD SVG 1.1//EN" "http://www.w3.org/Graphics/SVG/1.1/DTD/svg11.dtd" >
<svg>
<metadata>
Created by FontForge 20110222 at Tue Jul 28 15:46:03 2015
 By www-data
Part of the digitally encoded machine readable outline data for producing the Typefaces provided is copyrighted (c) 2003 - 2006 Linotype GmbH, www.linotype.com. All rights reserved. This software is the property of Linotype GmbH, and may not be reproduced, modified, disclosed or transferred without the express written approval of Linotype GmbH. Copyright (c) 1988, 1990, 1993 Adobe Systems Incorporated. All Rights Reserved. Helvetica is a trademark of Heidelberger Druckmaschinen AG, exclusively licensed through Linotype GmbH, and may be registered in certain jurisdictions. This typeface is original artwork of Linotype Design Studio. The design may be protected in certain jurisdictions.
</metadata>
<defs>
<font id="HelveticaNeueLTPro-Roman" horiz-adv-x="556" >
  <font-face 
    font-family="Helvetica Neue LT Pro"
    font-weight="400"
    font-stretch="normal"
    units-per-em="1000"
    panose-1="2 11 6 4 2 2 2 2 2 4"
    ascent="714"
    descent="-286"
    x-height="517"
    cap-height="714"
    bbox="-166 -214 1076 973"
    underline-thickness="50"
    underline-position="-50"
    stemh="75"
    stemv="85"
    unicode-range="U+000D-FB02"
  />
<missing-glyph horiz-adv-x="512" 
d="M222 117h56v67h-56v-67zM225 234h46c0 35 2 59 6 72s18 30 43 52c51 47 63 77 63 120c0 79 -53 131 -124 131c-72 0 -126 -42 -135 -137l50 -8c8 68 41 95 82 95s76 -37 76 -85c0 -25 -7 -42 -50 -83c-22 -22 -37 -42 -46 -59s-13 -44 -13 -81zM462 50h-412v617h412v-617
zM512 718h-512v-718h512v718z" />
    <glyph glyph-name="IJ" unicode="IJ" horiz-adv-x="780" 
d="M82 0v714h95v-714h-95zM702 714v-536c0 -96 -51 -195 -211 -195c-133 0 -208 73 -208 208v44h95v-30c0 -83 22 -142 115 -142c87 0 114 50 114 129v522h95z" />
    <glyph glyph-name="ij" unicode="ij" horiz-adv-x="430" 
d="M154 714v-104h-85v104h85zM69 0v517h85v-517h-85zM362 714v-104h-85v104h85zM362 517v-583c0 -92 -48 -132 -124 -132c-15 0 -29 1 -44 4v73c6 -1 12 -2 17 -2h18c37 0 48 18 48 71v569h85z" />
    <glyph glyph-name="napostrophe" unicode="&#x22;n" horiz-adv-x="578" 
d="M86 0v517h80v-82h2c36 64 93 94 168 94c136 0 178 -78 178 -189v-340h-85v350c0 64 -40 104 -105 104c-103 0 -153 -69 -153 -162v-292h-85zM14 714v88h111v-77c0 -57 -40 -83 -99 -83v35c41 11 40 25 40 37h-52z" />
    <glyph glyph-name="fi" unicode="fi" horiz-adv-x="518" 
d="M450 0h-85v517h85v-517zM450 610h-85v104h85v-104zM99 0v442h-87v75h87v77c0 84 50 128 143 128c16 0 39 -3 55 -8v-74c-15 5 -33 7 -48 7c-41 0 -65 -13 -65 -58v-72h100v-75h-100v-442h-85z" />
    <glyph glyph-name="fl" unicode="fl" horiz-adv-x="518" 
d="M365 0v714h85v-714h-85zM99 0v442h-87v75h87v77c0 84 50 128 143 128c16 0 39 -3 55 -8v-74c-15 5 -33 7 -48 7c-41 0 -65 -13 -65 -58v-72h100v-75h-100v-442h-85z" />
    <glyph glyph-name=".notdef" horiz-adv-x="512" 
d="M222 117h56v67h-56v-67zM225 234h46c0 35 2 59 6 72s18 30 43 52c51 47 63 77 63 120c0 79 -53 131 -124 131c-72 0 -126 -42 -135 -137l50 -8c8 68 41 95 82 95s76 -37 76 -85c0 -25 -7 -42 -50 -83c-22 -22 -37 -42 -46 -59s-13 -44 -13 -81zM462 50h-412v617h412v-617
zM512 718h-512v-718h512v718z" />
    <glyph glyph-name=".null" horiz-adv-x="500" 
 />
    <glyph glyph-name=".null" horiz-adv-x="500" 
 />
    <glyph glyph-name="CR" unicode="&#xd;" horiz-adv-x="0" 
 />
    <glyph glyph-name="space" unicode=" " horiz-adv-x="278" 
 />
    <glyph glyph-name="exclam" unicode="!" horiz-adv-x="259" 
d="M74 0v111h111v-111h-111zM177 714v-220l-25 -311h-45l-25 311v220h95z" />
    <glyph glyph-name="quotedbl" unicode="&#x22;" horiz-adv-x="426" 
d="M249 456v258h68v-258h-68zM109 456v258h68v-258h-68z" />
    <glyph glyph-name="numbersign" unicode="#" 
d="M355 424h-124l-21 -150h124zM102 0l29 206h-97v68h107l21 150h-102v68h111l29 205h69l-29 -205h124l29 205h69l-29 -205h89v-68h-98l-21 -150h91v-68h-101l-29 -206h-69l29 206h-124l-29 -206h-69z" />
    <glyph glyph-name="dollar" unicode="$" 
d="M25 218h85c3 -89 61 -142 141 -155v265c-141 35 -205 75 -205 193c0 121 90 202 205 210v66h55v-67c108 -13 170 -82 197 -198h-85c-13 66 -51 105 -112 116v-246l60 -16c52 -14 159 -63 159 -186c0 -129 -92 -206 -219 -217v-82h-55v82c-132 13 -215 96 -226 235z
M306 314v-251c75 5 129 42 129 128c0 76 -56 101 -129 123zM251 417v234c-64 -7 -115 -45 -115 -121c0 -70 48 -94 115 -113z" />
    <glyph glyph-name="percent" unicode="%" horiz-adv-x="1000" 
d="M167 508c0 -59 9 -145 84 -145c76 0 88 84 88 146c0 59 -9 145 -85 145c-75 0 -87 -86 -87 -146zM92 506c0 108 39 203 162 203c124 0 160 -91 160 -200c0 -104 -44 -201 -160 -201c-120 0 -162 89 -162 198zM661 188c0 -59 9 -145 84 -145c76 0 88 84 88 146
c0 59 -9 145 -85 145c-75 0 -87 -86 -87 -146zM586 186c0 108 39 203 162 203c124 0 160 -91 160 -200c0 -104 -44 -201 -160 -201c-120 0 -162 89 -162 198zM188 -22l538 744h85l-537 -744h-86z" />
    <glyph glyph-name="ampersand" unicode="&#x26;" horiz-adv-x="630" 
d="M275 439c41 27 95 62 95 124c0 41 -31 76 -82 76c-40 0 -82 -24 -82 -76c0 -43 38 -85 69 -124zM534 0l-76 89c-43 -67 -124 -101 -202 -101c-193 0 -223 137 -223 195c0 111 76 168 167 216c-40 56 -79 96 -79 168c0 77 57 147 161 147c89 0 173 -49 173 -146
c0 -86 -65 -145 -134 -185l129 -157c13 36 21 73 23 111h81c-8 -86 -18 -111 -48 -176l139 -161h-111zM411 148l-164 197c-67 -37 -124 -77 -124 -161c0 -72 67 -121 136 -121c65 0 117 33 152 85z" />
    <glyph glyph-name="quotesingle" unicode="'" horiz-adv-x="278" 
d="M105 456v258h68v-258h-68z" />
    <glyph glyph-name="parenleft" unicode="(" horiz-adv-x="259" 
d="M269 -198h-65c-96 149 -157 293 -157 468c0 157 54 324 157 461h65c-96 -151 -132 -298 -132 -461c0 -168 37 -315 132 -468z" />
    <glyph glyph-name="parenright" unicode=")" horiz-adv-x="259" 
d="M55 -198h-65c96 151 132 298 132 461c0 168 -37 315 -132 468h65c96 -149 157 -293 157 -468c0 -157 -54 -324 -157 -461z" />
    <glyph glyph-name="asterisk" unicode="*" horiz-adv-x="352" 
d="M201 714v-113l107 40l20 -48l-109 -38l66 -91l-41 -31l-69 96l-65 -96l-45 31l65 91l-106 38l18 48l106 -40v113h53z" />
    <glyph glyph-name="plus" unicode="+" horiz-adv-x="600" 
d="M334 506v-219h218v-68h-218v-219h-68v219h-218v68h218v219h68z" />
    <glyph glyph-name="comma" unicode="," horiz-adv-x="278" 
d="M83 0v111h111v-101c0 -76 -33 -134 -110 -157v50c44 16 61 64 58 97h-59z" />
    <glyph glyph-name="hyphen" unicode="-" horiz-adv-x="389" 
d="M50 238v80h289v-80h-289z" />
    <glyph glyph-name="period" unicode="." horiz-adv-x="278" 
d="M83 0v111h111v-111h-111z" />
    <glyph glyph-name="slash" unicode="/" horiz-adv-x="333" 
d="M-18 -17l296 748h73l-296 -748h-73z" />
    <glyph glyph-name="zero" unicode="0" 
d="M132 349c0 -106 1 -286 146 -286s146 180 146 286c0 105 -1 285 -146 285s-146 -180 -146 -285zM42 348c0 156 14 361 236 361s236 -205 236 -361s-14 -360 -236 -360s-236 204 -236 360z" />
    <glyph glyph-name="one" unicode="1" 
d="M356 709v-709h-85v508h-184v68c97 0 185 25 204 133h65z" />
    <glyph glyph-name="two" unicode="2" 
d="M129 458h-85c-8 144 78 251 228 251c123 0 222 -72 222 -204c0 -125 -84 -187 -172 -243c-88 -53 -183 -100 -199 -187h364v-75h-463c13 167 99 230 199 290c120 75 181 117 181 216c0 77 -62 128 -137 128c-99 0 -141 -91 -138 -176z" />
    <glyph glyph-name="three" unicode="3" 
d="M218 333v72c7 -1 13 -1 19 -1h18c72 0 135 40 135 116c0 75 -54 114 -126 114c-92 0 -134 -71 -134 -154h-85c5 135 77 229 219 229c123 0 216 -59 216 -190c0 -63 -43 -116 -98 -141v-2c87 -19 128 -87 128 -172c0 -141 -111 -216 -244 -216c-144 0 -239 84 -236 231h85
c3 -92 54 -156 151 -156c83 0 154 52 154 137c0 89 -67 136 -151 136c-18 0 -35 -1 -51 -3z" />
    <glyph glyph-name="four" unicode="4" 
d="M101 241h238v347h-2zM419 709v-468h96v-75h-96v-166h-80v166h-311v82l323 461h68z" />
    <glyph glyph-name="five" unicode="5" 
d="M470 697v-75h-286l-38 -204l2 -2c31 35 84 51 132 51c126 0 229 -80 229 -243c0 -120 -83 -236 -248 -236c-123 0 -223 75 -226 203h85c5 -73 64 -128 149 -128c81 0 150 56 150 168c0 93 -64 161 -160 161c-55 0 -99 -27 -132 -67l-73 4l66 368h350z" />
    <glyph glyph-name="six" unicode="6" 
d="M499 528h-85c-8 64 -51 106 -119 106c-144 0 -169 -160 -172 -269l2 -2c40 65 100 93 177 93c136 0 217 -99 217 -230c0 -104 -58 -238 -237 -238c-211 0 -244 193 -244 341c0 195 59 380 261 380c117 0 189 -65 200 -181zM286 381c-95 0 -147 -71 -147 -160
c0 -88 54 -158 147 -158c92 0 143 73 143 157c0 88 -46 161 -143 161z" />
    <glyph glyph-name="seven" unicode="7" 
d="M509 697v-73c-143 -141 -259 -403 -272 -624h-95c16 240 131 460 280 617h-372v80h459z" />
    <glyph glyph-name="eight" unicode="8" 
d="M155 525c0 -77 57 -114 126 -114c68 0 117 42 117 114s-50 109 -119 109c-68 0 -124 -38 -124 -109zM65 528c0 116 99 181 208 181c155 0 215 -90 215 -181c0 -64 -39 -120 -98 -147c85 -27 126 -89 126 -177c0 -137 -104 -216 -235 -216c-136 0 -241 72 -241 216
c0 84 44 149 124 177c-60 24 -99 83 -99 147zM130 200c0 -85 63 -137 151 -137c85 0 145 59 145 138c0 76 -66 135 -146 135c-84 0 -150 -53 -150 -136z" />
    <glyph glyph-name="nine" unicode="9" 
d="M49 171h85c7 -69 62 -108 130 -108c104 0 155 90 160 274l-2 2c-32 -60 -95 -98 -164 -98c-145 0 -224 97 -224 237c0 136 96 231 233 231c132 0 243 -71 243 -339c0 -245 -74 -382 -246 -382c-119 0 -204 61 -215 183zM409 472c0 87 -51 162 -146 162
c-101 0 -139 -81 -139 -168c0 -77 58 -150 140 -150c89 0 145 72 145 156z" />
    <glyph glyph-name="colon" unicode=":" horiz-adv-x="278" 
d="M194 517v-111h-111v111h111zM83 0v111h111v-111h-111z" />
    <glyph glyph-name="semicolon" unicode=";" horiz-adv-x="278" 
d="M194 517v-111h-111v111h111zM83 0v111h111v-101c1 -76 -33 -134 -110 -157v50c44 16 61 64 58 97h-59z" />
    <glyph glyph-name="less" unicode="&#x3c;" horiz-adv-x="600" 
d="M554 514v-68l-425 -193l425 -193v-68l-508 230v62z" />
    <glyph glyph-name="equal" unicode="=" horiz-adv-x="600" 
d="M48 118v68h504v-68h-504zM552 388v-68h-504v68h504z" />
    <glyph glyph-name="greater" unicode="&#x3e;" horiz-adv-x="600" 
d="M46 -8v68l425 193l-425 193v68l508 -230v-62z" />
    <glyph glyph-name="question" unicode="?" 
d="M218 0v111h111v-111h-111zM140 491h-85c-3 137 85 240 224 240c124 0 211 -73 211 -200c0 -83 -43 -127 -86 -170c-43 -40 -87 -80 -87 -148v-39h-85v47c7 167 176 171 168 318c-5 73 -49 117 -121 117c-96 0 -139 -73 -139 -165z" />
    <glyph glyph-name="at" unicode="@" horiz-adv-x="800" 
d="M618 554l-84 -284c-5 -17 -11 -36 -11 -51c0 -19 7 -31 24 -31c61 0 138 123 138 230c0 158 -131 258 -271 258c-171 0 -304 -146 -304 -321c0 -179 141 -317 309 -317c95 0 191 48 248 121h63c-65 -110 -184 -176 -313 -176c-211 0 -375 165 -375 377
c0 205 168 371 371 371c185 0 340 -128 340 -308c0 -173 -141 -290 -234 -290c-35 0 -61 21 -64 65h-3c-31 -35 -75 -67 -124 -67c-85 0 -143 70 -143 158c0 139 94 284 235 284c47 0 89 -22 112 -82l23 63h63zM420 505c-93 0 -160 -122 -160 -209c0 -56 35 -97 86 -97
c87 0 155 130 155 213c0 48 -39 93 -81 93z" />
    <glyph glyph-name="A" unicode="A" horiz-adv-x="648" 
d="M322 628l-121 -333h242l-119 333h-2zM-7 0l279 714h105l279 -714h-105l-78 215h-302l-80 -215h-98z" />
    <glyph glyph-name="B" unicode="B" horiz-adv-x="685" 
d="M173 634v-227h190c108 0 152 38 152 114c0 100 -69 113 -152 113h-190zM78 0v714h259c62 0 147 0 189 -26c47 -28 84 -78 84 -149c0 -76 -39 -133 -106 -160v-2c88 -19 136 -84 136 -172c0 -104 -76 -205 -217 -205h-345zM173 327v-247h238c83 0 134 49 134 128
c0 93 -75 119 -155 119h-217z" />
    <glyph glyph-name="C" unicode="C" horiz-adv-x="722" 
d="M675 499h-95c-21 101 -100 152 -200 152c-170 0 -242 -140 -242 -289c0 -163 72 -299 243 -299c124 0 198 88 206 206h95c-19 -179 -128 -286 -309 -286c-221 0 -330 164 -330 372s118 376 338 376c149 0 273 -80 294 -232z" />
    <glyph glyph-name="D" unicode="D" horiz-adv-x="704" 
d="M173 634v-554h158c65 0 240 18 240 281c0 170 -63 273 -238 273h-160zM78 0v714h245c220 0 343 -111 343 -340c0 -239 -105 -374 -343 -374h-245z" />
    <glyph glyph-name="E" unicode="E" horiz-adv-x="611" 
d="M78 0v714h493v-80h-398v-227h371v-80h-371v-247h401v-80h-496z" />
    <glyph glyph-name="F" unicode="F" horiz-adv-x="574" 
d="M78 0v714h469v-80h-374v-227h328v-80h-328v-327h-95z" />
    <glyph glyph-name="G" unicode="G" horiz-adv-x="759" 
d="M637 0l-25 89c-56 -74 -146 -106 -229 -106c-213 0 -340 173 -340 360c0 208 114 388 340 388c155 0 281 -70 307 -237h-95c-19 108 -105 157 -212 157c-173 0 -245 -151 -245 -303c0 -149 86 -285 245 -285c148 0 234 102 229 233h-228v80h313v-376h-60z" />
    <glyph glyph-name="H" unicode="H" horiz-adv-x="722" 
d="M78 0v714h95v-307h376v307h95v-714h-95v327h-376v-327h-95z" />
    <glyph glyph-name="I" unicode="I" horiz-adv-x="259" 
d="M82 0v714h95v-714h-95z" />
    <glyph glyph-name="J" unicode="J" horiz-adv-x="519" 
d="M441 714v-536c0 -96 -51 -195 -211 -195c-133 0 -208 73 -208 208v44h95v-30c0 -83 22 -142 115 -142c87 0 114 50 114 129v522h95z" />
    <glyph glyph-name="K" unicode="K" horiz-adv-x="667" 
d="M78 0v714h95v-356l362 356h123l-301 -288l313 -426h-120l-258 361l-119 -111v-250h-95z" />
    <glyph glyph-name="L" unicode="L" 
d="M78 0v714h95v-634h378v-80h-473z" />
    <glyph glyph-name="M" unicode="M" horiz-adv-x="871" 
d="M80 0v714h130l225 -600l226 600h130v-714h-90v594h-2l-223 -594h-81l-223 594h-2v-594h-90z" />
    <glyph glyph-name="N" unicode="N" horiz-adv-x="722" 
d="M77 0v714h101l376 -579h2v579h90v-714h-104l-373 573h-2v-573h-90z" />
    <glyph glyph-name="O" unicode="O" horiz-adv-x="760" 
d="M133 357c0 -144 73 -294 247 -294s247 150 247 294s-73 294 -247 294s-247 -150 -247 -294zM38 357c0 195 115 374 342 374s342 -179 342 -374s-115 -374 -342 -374s-342 179 -342 374z" />
    <glyph glyph-name="P" unicode="P" horiz-adv-x="648" 
d="M173 634v-262h186c108 -1 156 46 156 131s-48 131 -156 131h-186zM78 0v714h313c143 0 219 -78 219 -211s-76 -212 -219 -211h-218v-292h-95z" />
    <glyph glyph-name="Q" unicode="Q" horiz-adv-x="760" 
d="M400 146l50 58l95 -76c56 56 82 142 82 229c0 144 -73 294 -247 294s-247 -150 -247 -294s73 -294 247 -294c35 0 68 7 99 20zM708 -2l-48 -60l-109 88c-48 -29 -105 -43 -171 -43c-227 0 -342 179 -342 374s115 374 342 374s342 -179 342 -374
c0 -109 -36 -213 -108 -284z" />
    <glyph glyph-name="R" unicode="R" horiz-adv-x="685" 
d="M78 0v714h336c135 0 217 -72 217 -187c0 -87 -37 -157 -124 -181v-2c83 -16 99 -78 107 -147c5 -69 2 -149 42 -197h-106c-27 29 -12 106 -26 176c-11 69 -27 129 -119 129h-232v-305h-95zM173 385h198c88 0 165 23 165 127c0 71 -38 122 -127 122h-236v-249z" />
    <glyph glyph-name="S" unicode="S" horiz-adv-x="648" 
d="M581 505h-90c-11 103 -78 146 -177 146c-81 0 -160 -29 -160 -122c0 -176 457 -52 457 -333c0 -152 -149 -213 -279 -213c-160 0 -295 79 -295 252h90c0 -120 100 -172 208 -172c86 0 181 27 181 130c0 196 -457 67 -457 329c0 144 128 209 259 209
c146 0 258 -69 263 -226z" />
    <glyph glyph-name="T" unicode="T" horiz-adv-x="574" 
d="M240 0v634h-238v80h571v-80h-238v-634h-95z" />
    <glyph glyph-name="U" unicode="U" horiz-adv-x="722" 
d="M648 714v-456c0 -181 -102 -275 -281 -275c-184 0 -293 85 -293 275v456h95v-456c0 -127 71 -195 198 -195c121 0 186 68 186 195v456h95z" />
    <glyph glyph-name="V" unicode="V" horiz-adv-x="611" 
d="M613 714l-254 -714h-108l-252 714h103l204 -619h2l206 619h99z" />
    <glyph glyph-name="W" unicode="W" horiz-adv-x="926" 
d="M914 714l-191 -714h-99l-163 600h-2l-165 -600h-99l-183 714h97l140 -594h2l160 594h103l158 -594h2l145 594h95z" />
    <glyph glyph-name="X" unicode="X" horiz-adv-x="611" 
d="M-1 0l249 367l-235 347h114l178 -279l186 279h106l-236 -347l251 -367h-116l-192 295l-198 -295h-107z" />
    <glyph glyph-name="Y" unicode="Y" horiz-adv-x="648" 
d="M646 714l-273 -422v-292h-95v292l-276 422h113l214 -340l209 340h108z" />
    <glyph glyph-name="Z" unicode="Z" horiz-adv-x="611" 
d="M22 0v80l444 554h-410v80h522v-80l-443 -554h455v-80h-568z" />
    <glyph glyph-name="bracketleft" unicode="[" horiz-adv-x="259" 
d="M259 731v-68h-107v-793h107v-68h-187v929h187z" />
    <glyph glyph-name="backslash" unicode="\" horiz-adv-x="333" 
d="M55 731l296 -748h-73l-296 748h73z" />
    <glyph glyph-name="bracketright" unicode="]" horiz-adv-x="259" 
d="M0 -198v68h107v793h-107v68h187v-929h-187z" />
    <glyph glyph-name="asciicircum" unicode="^" horiz-adv-x="600" 
d="M50 264l218 433h64l218 -433h-70l-181 360l-178 -360h-71z" />
    <glyph glyph-name="underscore" unicode="_" horiz-adv-x="500" 
d="M0 -125v50h500v-50h-500z" />
    <glyph glyph-name="grave" unicode="`" horiz-adv-x="222" 
d="M108 589l-131 143h109l86 -143h-64z" />
    <glyph glyph-name="a" unicode="a" horiz-adv-x="537" 
d="M522 68v-66c-15 -9 -36 -14 -61 -14c-44 0 -72 24 -72 80c-47 -56 -110 -80 -182 -80c-94 0 -171 41 -171 145c0 117 87 143 175 159c93 19 174 11 174 76c0 75 -62 86 -115 86c-72 0 -125 -22 -129 -98h-85c5 128 103 173 219 173c93 0 194 -21 194 -142v-266
c0 -40 0 -58 27 -58c8 0 17 2 26 5zM384 180v87c-66 -49 -258 -1 -258 -128c0 -56 48 -76 100 -76c112 0 158 69 158 117z" />
    <glyph glyph-name="b" unicode="b" horiz-adv-x="593" 
d="M67 0v714h85v-267h2c28 57 93 82 165 82c159 0 238 -126 238 -272c0 -147 -78 -269 -236 -269c-52 0 -130 20 -167 81h-2v-69h-85zM467 263c0 97 -50 191 -160 191c-115 0 -158 -99 -158 -195c0 -101 46 -196 163 -196c116 0 155 99 155 200z" />
    <glyph glyph-name="c" unicode="c" horiz-adv-x="537" 
d="M503 351h-88c-13 65 -57 103 -128 103c-123 0 -161 -98 -161 -202c0 -96 43 -189 151 -189c83 0 131 47 142 126h87c-19 -127 -97 -201 -228 -201c-158 0 -242 109 -242 264s80 277 244 277c118 0 210 -55 223 -178z" />
    <glyph glyph-name="d" unicode="d" horiz-adv-x="593" 
d="M126 254c0 -97 50 -191 160 -191c115 0 158 99 158 195c0 101 -46 196 -163 196c-116 0 -155 -99 -155 -200zM526 714v-714h-85v70h-2c-28 -57 -93 -82 -165 -82c-159 0 -238 126 -238 272s78 269 236 269c52 0 130 -20 167 -81h2v266h85z" />
    <glyph glyph-name="e" unicode="e" horiz-adv-x="537" 
d="M126 308h297c-5 81 -64 146 -149 146c-88 0 -143 -66 -148 -146zM421 164h84c-23 -115 -104 -176 -221 -176c-165 0 -243 115 -248 272c0 156 102 269 243 269c183 0 239 -171 234 -296h-387c-3 -90 48 -170 161 -170c71 0 119 33 134 101z" />
    <glyph glyph-name="f" unicode="f" horiz-adv-x="296" 
d="M99 0v442h-87v75h87v77c0 84 50 128 143 128c16 0 39 -3 55 -8v-74c-15 5 -33 7 -48 7c-41 0 -65 -13 -65 -58v-72h100v-75h-100v-442h-85z" />
    <glyph glyph-name="g" unicode="g" horiz-adv-x="574" 
d="M510 517v-473c0 -169 -76 -254 -240 -254c-97 0 -209 40 -214 152h85c3 -61 79 -84 134 -84c111 0 155 80 155 196v34h-2c-29 -63 -95 -94 -161 -94c-154 0 -231 121 -231 262c0 122 59 273 239 273c65 0 123 -29 154 -86h1v74h80zM272 69c112 0 154 103 154 200
c0 91 -40 185 -147 185c-109 0 -153 -89 -153 -188c0 -93 34 -197 146 -197z" />
    <glyph glyph-name="h" unicode="h" 
d="M64 0v714h85v-273h2c27 63 102 88 163 88c136 0 178 -78 178 -189v-340h-85v350c0 64 -40 104 -105 104c-103 0 -153 -69 -153 -162v-292h-85z" />
    <glyph glyph-name="i" unicode="i" horiz-adv-x="222" 
d="M154 714v-104h-85v104h85zM69 0v517h85v-517h-85z" />
    <glyph glyph-name="j" unicode="j" horiz-adv-x="222" 
d="M154 714v-104h-85v104h85zM154 517v-583c0 -92 -48 -132 -124 -132c-15 0 -29 1 -44 4v73c6 -1 12 -2 17 -2h18c37 0 48 18 48 71v569h85z" />
    <glyph glyph-name="k" unicode="k" horiz-adv-x="519" 
d="M69 0v714h85v-423l236 226h114l-205 -188l220 -329h-108l-177 270l-80 -74v-196h-85z" />
    <glyph glyph-name="l" unicode="l" horiz-adv-x="222" 
d="M69 0v714h85v-714h-85z" />
    <glyph glyph-name="m" unicode="m" horiz-adv-x="853" 
d="M64 0v517h80v-76h2c39 59 94 88 167 88c64 0 121 -24 142 -88c35 56 95 88 162 88c103 0 172 -43 172 -150v-379h-85v339c0 64 -17 115 -100 115s-135 -52 -135 -132v-322h-85v339c0 67 -21 115 -97 115c-100 0 -138 -92 -138 -132v-322h-85z" />
    <glyph glyph-name="n" unicode="n" 
d="M64 0v517h80v-82h2c36 64 93 94 168 94c136 0 178 -78 178 -189v-340h-85v350c0 64 -40 104 -105 104c-103 0 -153 -69 -153 -162v-292h-85z" />
    <glyph glyph-name="o" unicode="o" horiz-adv-x="574" 
d="M126 258c0 -125 72 -195 161 -195s161 70 161 195s-72 196 -161 196s-161 -71 -161 -196zM36 258c0 152 87 271 251 271s251 -119 251 -271c0 -151 -87 -270 -251 -270s-251 119 -251 270z" />
    <glyph glyph-name="p" unicode="p" horiz-adv-x="593" 
d="M67 -198v715h85v-70h2c28 57 93 82 165 82c159 0 238 -126 238 -272c0 -147 -78 -269 -236 -269c-52 0 -130 20 -167 81h-2v-267h-85zM467 263c0 97 -50 191 -160 191c-115 0 -158 -99 -158 -195c0 -101 46 -196 163 -196c116 0 155 99 155 200z" />
    <glyph glyph-name="q" unicode="q" horiz-adv-x="593" 
d="M126 254c0 -97 50 -191 160 -191c115 0 158 99 158 195c0 101 -46 196 -163 196c-116 0 -155 -99 -155 -200zM526 517v-715h-85v268h-2c-28 -57 -93 -82 -165 -82c-159 0 -238 126 -238 272s78 269 236 269c52 0 130 -20 167 -81h2v69h85z" />
    <glyph glyph-name="r" unicode="r" horiz-adv-x="333" 
d="M61 0v517h80v-109h2c41 84 98 124 190 121v-90c-137 0 -187 -77 -187 -209v-230h-85z" />
    <glyph glyph-name="s" unicode="s" horiz-adv-x="500" 
d="M31 163h85c3 -76 70 -100 139 -100c53 0 125 12 125 77c0 133 -338 43 -338 242c0 104 102 147 193 147c116 0 204 -36 212 -162h-85c-5 66 -65 87 -120 87c-51 0 -110 -14 -110 -66c0 -60 90 -72 169 -90c85 -19 169 -48 169 -147c0 -124 -115 -163 -220 -163
c-116 0 -214 47 -219 175z" />
    <glyph glyph-name="t" unicode="t" horiz-adv-x="315" 
d="M182 672v-155h103v-75h-103v-321c0 -40 11 -46 64 -46h39v-75h-65c-88 0 -123 18 -123 113v329h-88v75h88v155h85z" />
    <glyph glyph-name="u" unicode="u" 
d="M492 517v-517h-80v82h-2c-36 -64 -93 -94 -168 -94c-136 0 -178 78 -178 189v340h85v-350c0 -64 40 -104 105 -104c103 0 153 69 153 162v292h85z" />
    <glyph glyph-name="v" unicode="v" horiz-adv-x="500" 
d="M486 517l-189 -517h-91l-192 517h95l145 -431h2l141 431h89z" />
    <glyph glyph-name="w" unicode="w" horiz-adv-x="758" 
d="M741 517l-165 -517h-90l-105 411h-2l-104 -411h-92l-166 517h94l117 -423h2l104 423h93l108 -423h2l116 423h88z" />
    <glyph glyph-name="x" unicode="x" horiz-adv-x="518" 
d="M9 0l194 272l-180 245h109l124 -181l129 181h102l-178 -238l200 -279h-109l-144 214l-144 -214h-103z" />
    <glyph glyph-name="y" unicode="y" horiz-adv-x="500" 
d="M492 517l-225 -586c-40 -100 -74 -138 -150 -138c-20 0 -40 2 -59 9v78c16 -5 33 -12 50 -12c35 0 54 16 70 47l35 88l-205 514h96l151 -423h2l145 423h90z" />
    <glyph glyph-name="z" unicode="z" horiz-adv-x="480" 
d="M22 0v65l312 377h-292v75h402v-58l-316 -384h330v-75h-436z" />
    <glyph glyph-name="braceleft" unicode="{" horiz-adv-x="333" 
d="M309 731v-60h-50c-39 0 -48 -43 -48 -86v-183c0 -93 -64 -129 -87 -134v-3c23 -3 87 -33 87 -134v-183c0 -41 9 -86 48 -86h50v-60h-70c-50 0 -108 46 -108 131v182c0 73 -40 117 -83 117v68c43 0 83 48 83 118v182c0 85 58 131 108 131h70z" />
    <glyph glyph-name="bar" unicode="|" horiz-adv-x="222" 
d="M77 -214v1000h68v-1000h-68z" />
    <glyph glyph-name="braceright" unicode="}" horiz-adv-x="333" 
d="M24 -198v60h50c39 0 48 43 48 86v183c0 93 64 129 87 134v3c-23 3 -87 33 -87 134v181c0 44 -9 88 -48 88h-50v60h70c50 0 108 -46 108 -131v-182c0 -73 40 -118 83 -118v-68c-43 0 -83 -48 -83 -117v-182c0 -85 -58 -131 -108 -131h-70z" />
    <glyph glyph-name="asciitilde" unicode="~" horiz-adv-x="600" 
d="M495 319l36 -50c-29 -43 -63 -86 -125 -86c-37 0 -69 14 -102 33c-32 19 -68 39 -115 39c-44 0 -68 -41 -84 -76l-36 50c21 43 59 86 125 86c35 0 72 -15 111 -32c37 -16 75 -40 102 -40c41 0 64 41 88 76z" />
    <glyph glyph-name="uni00A0" unicode="&#xa0;" horiz-adv-x="278" 
 />
    <glyph glyph-name="exclamdown" unicode="&#xa1;" horiz-adv-x="259" 
d="M185 517v-111h-111v111h111zM82 -198v220l25 311h45l25 -311v-220h-95z" />
    <glyph glyph-name="cent" unicode="&#xa2;" 
d="M272 -116v104c-146 5 -226 117 -226 264c0 144 76 266 226 277v95h39v-95c109 -3 188 -57 203 -178h-87c-13 61 -52 100 -116 103v-391c72 7 110 58 121 126h85c-11 -99 -81 -201 -206 -201v-104h-39zM272 63v391c-103 -13 -136 -103 -136 -202c0 -92 39 -181 136 -189z
" />
    <glyph glyph-name="sterling" unicode="&#xa3;" 
d="M47 327v45h58c-27 45 -47 93 -47 156c0 127 106 203 228 203c148 0 239 -86 236 -258h-85c-3 116 -50 183 -146 183c-80 0 -143 -56 -143 -131c0 -65 28 -105 52 -153h159v-45h-137c11 -21 20 -47 20 -75c0 -90 -57 -139 -116 -188l2 -2c35 15 65 29 105 29
c39 0 68 -8 95 -15c27 -8 53 -18 84 -18c32 0 65 18 89 37l43 -66c-40 -35 -94 -46 -146 -46c-33 0 -64 9 -99 20c-33 11 -66 21 -105 21s-69 -14 -100 -35l-47 66c57 38 110 102 110 179c0 31 -13 66 -25 93h-85z" />
    <glyph glyph-name="currency" unicode="&#xa4;" 
d="M281 524c-95 0 -168 -76 -168 -175c0 -97 74 -173 167 -173s163 79 163 175c0 93 -70 173 -162 173zM25 555l49 49l56 -56c39 32 95 51 151 51c53 0 107 -19 143 -50l57 56l50 -51l-55 -55c35 -37 52 -92 52 -148s-17 -109 -52 -150l55 -56l-47 -47l-56 58
c-39 -36 -92 -55 -148 -55c-59 0 -112 18 -152 54l-55 -58l-48 48l55 58c-33 40 -52 90 -52 146s17 111 54 148z" />
    <glyph glyph-name="yen" unicode="&#xa5;" 
d="M232 0v174h-141v60h141v42l-18 33h-123v60h92l-183 345h109l174 -353l169 353h104l-178 -345h93v-60h-126l-18 -33v-42h144v-60h-144v-174h-95z" />
    <glyph glyph-name="brokenbar" unicode="&#xa6;" horiz-adv-x="222" 
d="M145 661v-250h-68v250h68zM77 -89v250h68v-250h-68z" />
    <glyph glyph-name="section" unicode="&#xa7;" 
d="M465 546h-85c-1 61 -37 110 -101 110c-53 0 -95 -27 -95 -86c0 -63 82 -102 166 -147c83 -45 166 -96 166 -194c0 -66 -44 -123 -104 -147c39 -29 59 -69 59 -120c0 -96 -79 -160 -187 -160c-119 0 -193 72 -201 189h85c1 -68 46 -114 114 -114c49 0 101 27 101 83
c0 69 -87 108 -174 156c-86 46 -174 100 -174 209c0 62 48 122 107 138c-29 31 -46 63 -46 106c0 104 93 162 185 162c109 0 181 -60 184 -185zM190 420c-39 -13 -73 -48 -73 -91c0 -64 56 -92 105 -122c48 -25 95 -52 140 -83c39 16 72 48 72 93c0 57 -64 91 -106 118
c-47 28 -93 54 -138 85z" />
    <glyph glyph-name="dieresis" unicode="&#xa8;" horiz-adv-x="222" 
d="M-28 602v104h90v-104h-90zM160 602v104h90v-104h-90z" />
    <glyph glyph-name="copyright" unicode="&#xa9;" horiz-adv-x="800" 
d="M535 285h64c-21 -97 -94 -157 -186 -157c-136 0 -222 98 -222 229c0 133 82 228 219 228c96 0 172 -53 188 -152h-63c-11 56 -57 97 -124 97c-99 0 -152 -75 -152 -171c0 -93 58 -176 154 -176c67 0 113 42 122 102zM92 359c0 -183 133 -321 309 -321
c173 0 307 138 307 321c0 178 -134 317 -307 317c-176 0 -309 -139 -309 -317zM24 359c0 211 172 372 377 372c204 0 375 -161 375 -372c0 -215 -171 -376 -375 -376c-205 0 -377 161 -377 376z" />
    <glyph glyph-name="ordfeminine" unicode="&#xaa;" horiz-adv-x="378" 
d="M155 430c75 0 102 39 102 69v47c-21 -13 -63 -16 -100 -23c-36 -7 -64 -17 -64 -52s29 -41 62 -41zM317 622v-160c0 -24 3 -32 14 -32h11c4 0 8 1 11 2v-44c-13 -5 -26 -8 -43 -8c-32 0 -49 15 -51 46c-29 -31 -68 -46 -117 -46c-63 0 -117 27 -117 89c0 69 61 94 120 99
c93 11 115 14 115 42c0 44 -39 49 -77 49c-48 0 -80 -13 -83 -56h-60c3 77 71 106 147 106c60 0 130 -15 130 -87z" />
    <glyph glyph-name="guillemotleft" unicode="&#xab;" horiz-adv-x="463" 
d="M202 114l-152 120v88l152 120v-86l-100 -78l100 -78v-86zM398 114l-152 120v88l152 120v-86l-100 -78l100 -78v-86z" />
    <glyph glyph-name="logicalnot" unicode="&#xac;" horiz-adv-x="600" 
d="M552 388v-279h-68v211h-436v68h504z" />
    <glyph glyph-name="uni00AD" unicode="&#xad;" horiz-adv-x="389" 
d="M50 238v80h289v-80h-289z" />
    <glyph glyph-name="registered" unicode="&#xae;" horiz-adv-x="800" 
d="M323 521v-139h71c60 0 115 3 115 72c0 58 -50 67 -96 67h-90zM255 139v437h169c104 0 153 -41 153 -125c0 -79 -50 -112 -115 -119l125 -193h-73l-119 188h-72v-188h-68zM92 359c0 -183 133 -321 309 -321c173 0 307 138 307 321c0 179 -134 317 -307 317
c-176 0 -309 -138 -309 -317zM24 359c0 211 172 372 377 372c204 0 375 -161 375 -372c0 -215 -171 -376 -375 -376c-205 0 -377 161 -377 376z" />
    <glyph glyph-name="macron" unicode="&#xaf;" horiz-adv-x="222" 
d="M-59 627v55h341v-55h-341z" />
    <glyph glyph-name="degree" unicode="&#xb0;" horiz-adv-x="400" 
d="M106 565c0 -47 35 -94 94 -94s94 47 94 94s-35 94 -94 94s-94 -47 -94 -94zM56 565c0 79 63 144 144 144c79 0 144 -65 144 -144c0 -81 -65 -144 -144 -144c-81 0 -144 63 -144 144z" />
    <glyph glyph-name="plusminus" unicode="&#xb1;" horiz-adv-x="600" 
d="M48 0v68h504v-68h-504zM48 271v68h218v166h68v-166h218v-68h-218v-167h-68v167h-218z" />
    <glyph glyph-name="twosuperior" unicode="&#xb2;" horiz-adv-x="333" 
d="M90 555h-68c0 92 60 154 153 154c81 0 148 -46 148 -126c0 -74 -57 -113 -113 -145c-57 -35 -117 -61 -128 -103h235v-55h-303c5 101 60 136 125 174c78 46 116 70 116 130c0 43 -36 70 -83 70c-60 0 -82 -47 -82 -99z" />
    <glyph glyph-name="threesuperior" unicode="&#xb3;" horiz-adv-x="333" 
d="M132 477v50h24c44 0 83 18 83 65c0 40 -33 62 -77 62c-55 0 -80 -37 -80 -86h-68c5 87 59 141 148 141c83 0 145 -40 145 -117c0 -39 -31 -70 -68 -85v-2c59 -11 87 -51 87 -102c0 -88 -78 -130 -162 -130c-89 0 -160 48 -160 141h68c1 -56 33 -86 92 -86
c51 0 94 27 94 72c0 56 -46 77 -93 77h-33z" />
    <glyph glyph-name="acute" unicode="&#xb4;" horiz-adv-x="222" 
d="M50 589l86 143h109l-131 -143h-64z" />
    <glyph glyph-name="mu" unicode="&#xb5;" 
d="M492 517v-517h-80v82h-2c-36 -64 -93 -94 -168 -94c-43 0 -74 11 -91 38h-2v-224h-85v715h85v-350c0 -64 40 -104 105 -104c103 0 153 69 153 162v292h85z" />
    <glyph glyph-name="paragraph" unicode="&#xb6;" horiz-adv-x="600" 
d="M515 714v-869h-68v814h-122v-814h-68v477c-123 0 -209 82 -209 186c0 131 87 206 228 206h239z" />
    <glyph glyph-name="periodcentered" unicode="&#xb7;" horiz-adv-x="278" 
d="M75 311c0 35 29 64 64 64s64 -29 64 -64c0 -32 -30 -64 -63 -64c-35 0 -65 29 -65 64z" />
    <glyph glyph-name="cedilla" unicode="&#xb8;" horiz-adv-x="222" 
d="M5 -191l18 44c16 -7 40 -13 61 -13c27 0 62 8 62 31c0 19 -20 31 -47 31c-16 0 -26 -3 -41 -8l-17 28l61 78h42l-42 -53l2 -2c7 5 18 7 33 7c43 0 84 -24 84 -73c0 -67 -68 -89 -124 -89c-32 0 -61 8 -92 19z" />
    <glyph glyph-name="onesuperior" unicode="&#xb9;" horiz-adv-x="333" 
d="M249 709v-429h-68v308h-115v50c65 0 120 16 133 71h50z" />
    <glyph glyph-name="ordmasculine" unicode="&#xba;" horiz-adv-x="384" 
d="M192 659c-55 0 -99 -36 -99 -116c0 -60 28 -113 100 -113c71 0 98 52 98 112c0 97 -56 117 -99 117zM192 709c108 0 167 -72 167 -166c0 -96 -57 -163 -166 -163c-106 0 -168 68 -168 163c0 92 59 166 167 166z" />
    <glyph glyph-name="guillemotright" unicode="&#xbb;" horiz-adv-x="463" 
d="M261 442l152 -120v-88l-152 -120v86l100 78l-100 78v86zM65 442l152 -120v-88l-152 -120v86l100 78l-100 78v86z" />
    <glyph glyph-name="onequarter" unicode="&#xbc;" horiz-adv-x="834" 
d="M219 709v-429h-68v308h-115v50c65 0 120 15 133 71h50zM150 -28l435 753h64l-435 -753h-64zM659 344l-148 -193h150v193h-2zM723 429v-278h60v-55h-60v-96h-62v96h-199v58l210 275h51z" />
    <glyph glyph-name="onehalf" unicode="&#xbd;" horiz-adv-x="834" 
d="M570 275h-68c0 92 60 154 153 154c81 0 148 -46 148 -126c0 -74 -57 -113 -113 -145c-57 -35 -117 -61 -128 -103h235v-55h-303c5 101 60 136 125 174c78 46 116 70 116 130c0 43 -36 70 -83 70c-60 0 -82 -47 -82 -99zM219 709v-429h-68v308h-115v50c65 0 120 15 133 71
h50zM135 -28l435 753h64l-435 -753h-64z" />
    <glyph glyph-name="threequarters" unicode="&#xbe;" horiz-adv-x="834" 
d="M177 477v50h24c44 0 83 18 83 65c0 40 -33 62 -77 62c-55 0 -80 -37 -80 -86h-68c5 87 59 141 148 141c83 0 145 -40 145 -117c0 -39 -31 -70 -68 -85v-2c59 -11 87 -51 87 -102c0 -88 -78 -130 -162 -130c-89 0 -160 48 -160 141h68c1 -56 33 -86 92 -86
c51 0 94 27 94 72c0 56 -46 77 -93 77h-33zM215 -28l435 753h64l-435 -753h-64zM677 340l-148 -193h150v193h-2zM740 429v-278h60v-55h-60v-96h-62v96h-199v58l210 275h51z" />
    <glyph glyph-name="questiondown" unicode="&#xbf;" 
d="M337 517v-111h-111v111h111zM418 30h85c3 -137 -85 -240 -224 -240c-124 0 -211 73 -211 200c0 83 41 127 86 170c43 40 87 80 87 148v31h85v-39c-7 -167 -176 -171 -168 -318c5 -73 49 -117 121 -117c96 0 139 73 139 165z" />
    <glyph glyph-name="Agrave" unicode="&#xc0;" horiz-adv-x="648" 
d="M322 628l-121 -333h242l-119 333h-2zM-7 0l279 714h105l279 -714h-105l-78 215h-302l-80 -215h-98zM309 779l-131 143h109l86 -143h-64z" />
    <glyph glyph-name="Aacute" unicode="&#xc1;" horiz-adv-x="648" 
d="M322 628l-121 -333h242l-119 333h-2zM-7 0l279 714h105l279 -714h-105l-78 215h-302l-80 -215h-98zM276 779l86 143h109l-131 -143h-64z" />
    <glyph glyph-name="Acircumflex" unicode="&#xc2;" horiz-adv-x="648" 
d="M322 628l-121 -333h242l-119 333h-2zM-7 0l279 714h105l279 -714h-105l-78 215h-302l-80 -215h-98zM176 779l103 143h93l104 -143h-84l-69 96l-70 -96h-77z" />
    <glyph glyph-name="Atilde" unicode="&#xc3;" horiz-adv-x="648" 
d="M322 628l-121 -333h242l-119 333h-2zM-7 0l279 714h105l279 -714h-105l-78 215h-302l-80 -215h-98zM445 907h52c-4 -29 -15 -56 -32 -79c-17 -21 -38 -32 -69 -32c-28 0 -51 9 -75 20c-24 9 -47 19 -66 19c-11 0 -23 -4 -31 -12c-8 -7 -11 -13 -18 -30h-52
c13 61 43 110 106 110c53 0 96 -40 139 -40c24 0 38 17 46 44z" />
    <glyph glyph-name="Adieresis" unicode="&#xc4;" horiz-adv-x="648" 
d="M322 628l-121 -333h242l-119 333h-2zM-7 0l279 714h105l279 -714h-105l-78 215h-302l-80 -215h-98zM185 793v104h90v-104h-90zM373 793v104h90v-104h-90z" />
    <glyph glyph-name="Aring" unicode="&#xc5;" horiz-adv-x="648" 
d="M211 861c0 62 52 112 113 112s113 -50 113 -112s-52 -112 -113 -112s-113 50 -113 112zM257 860c0 -39 28 -68 67 -68s67 29 67 68s-28 68 -67 68s-67 -29 -67 -68zM322 628l-121 -333h242l-119 333h-2zM-7 0l279 714h105l279 -714h-105l-78 215h-302l-80 -215h-98z" />
    <glyph glyph-name="AE" unicode="&#xc6;" horiz-adv-x="926" 
d="M448 634h-41l-168 -346h209v346zM-7 0l361 714h535v-80h-351v-227h330v-80h-330v-247h357v-80h-447v208h-246l-102 -208h-107z" />
    <glyph glyph-name="Ccedilla" unicode="&#xc7;" horiz-adv-x="722" 
d="M675 499h-95c-21 101 -100 152 -200 152c-170 0 -242 -140 -242 -289c0 -163 72 -299 243 -299c124 0 198 88 206 206h95c-19 -176 -125 -282 -301 -285l-29 -37l2 -2c7 5 18 7 33 7c43 0 84 -24 84 -73c0 -67 -68 -89 -124 -89c-32 0 -61 8 -92 19l18 44
c16 -7 40 -13 61 -13c27 0 62 8 62 31c0 19 -20 31 -47 31c-16 0 -26 -3 -41 -8l-17 28l49 63c-200 16 -297 172 -297 370c0 208 118 376 338 376c149 0 273 -80 294 -232z" />
    <glyph glyph-name="Egrave" unicode="&#xc8;" horiz-adv-x="611" 
d="M78 0v714h493v-80h-398v-227h371v-80h-371v-247h401v-80h-496zM299 779l-131 143h109l86 -143h-64z" />
    <glyph glyph-name="Eacute" unicode="&#xc9;" horiz-adv-x="611" 
d="M78 0v714h493v-80h-398v-227h371v-80h-371v-247h401v-80h-496zM284 779l86 143h109l-131 -143h-64z" />
    <glyph glyph-name="Ecircumflex" unicode="&#xca;" horiz-adv-x="611" 
d="M78 0v714h493v-80h-398v-227h371v-80h-371v-247h401v-80h-496zM175 779l103 143h93l104 -143h-84l-69 96l-70 -96h-77z" />
    <glyph glyph-name="Edieresis" unicode="&#xcb;" horiz-adv-x="611" 
d="M78 0v714h493v-80h-398v-227h371v-80h-371v-247h401v-80h-496zM189 792v104h90v-104h-90zM377 792v104h90v-104h-90z" />
    <glyph glyph-name="Igrave" unicode="&#xcc;" horiz-adv-x="259" 
d="M82 0v714h95v-714h-95zM113 779l-131 143h109l86 -143h-64z" />
    <glyph glyph-name="Iacute" unicode="&#xcd;" horiz-adv-x="259" 
d="M82 0v714h95v-714h-95zM83 779l86 143h109l-131 -143h-64z" />
    <glyph glyph-name="Icircumflex" unicode="&#xce;" horiz-adv-x="259" 
d="M82 0v714h95v-714h-95zM-16 779l103 143h93l104 -143h-84l-69 96l-70 -96h-77z" />
    <glyph glyph-name="Idieresis" unicode="&#xcf;" horiz-adv-x="259" 
d="M82 0v714h95v-714h-95zM-9 792v104h90v-104h-90zM179 792v104h90v-104h-90z" />
    <glyph glyph-name="Eth" unicode="&#xd0;" horiz-adv-x="704" 
d="M173 634v-227h214v-68h-214v-259h158c65 0 240 18 240 281c0 170 -63 273 -238 273h-160zM78 0v339h-70v68h70v307h245c220 0 343 -111 343 -340c0 -239 -105 -374 -343 -374h-245z" />
    <glyph glyph-name="Ntilde" unicode="&#xd1;" horiz-adv-x="722" 
d="M77 0v714h101l376 -579h2v579h90v-714h-104l-373 573h-2v-573h-90zM487 907h52c-4 -29 -15 -56 -32 -79c-17 -21 -38 -32 -69 -32c-28 0 -51 9 -75 20c-24 9 -47 19 -66 19c-11 0 -23 -4 -31 -12c-8 -7 -11 -13 -18 -30h-52c13 61 43 110 106 110c53 0 96 -40 139 -40
c24 0 38 17 46 44z" />
    <glyph glyph-name="Ograve" unicode="&#xd2;" horiz-adv-x="760" 
d="M133 357c0 -144 73 -294 247 -294s247 150 247 294s-73 294 -247 294s-247 -150 -247 -294zM38 357c0 195 115 374 342 374s342 -179 342 -374s-115 -374 -342 -374s-342 179 -342 374zM362 779l-131 143h109l86 -143h-64z" />
    <glyph glyph-name="Oacute" unicode="&#xd3;" horiz-adv-x="760" 
d="M133 357c0 -144 73 -294 247 -294s247 150 247 294s-73 294 -247 294s-247 -150 -247 -294zM38 357c0 195 115 374 342 374s342 -179 342 -374s-115 -374 -342 -374s-342 179 -342 374zM325 779l86 143h109l-131 -143h-64z" />
    <glyph glyph-name="Ocircumflex" unicode="&#xd4;" horiz-adv-x="760" 
d="M133 357c0 -144 73 -294 247 -294s247 150 247 294s-73 294 -247 294s-247 -150 -247 -294zM38 357c0 195 115 374 342 374s342 -179 342 -374s-115 -374 -342 -374s-342 179 -342 374zM232 779l103 143h93l104 -143h-84l-69 96l-70 -96h-77z" />
    <glyph glyph-name="Otilde" unicode="&#xd5;" horiz-adv-x="760" 
d="M133 357c0 -144 73 -294 247 -294s247 150 247 294s-73 294 -247 294s-247 -150 -247 -294zM38 357c0 195 115 374 342 374s342 -179 342 -374s-115 -374 -342 -374s-342 179 -342 374zM502 907h52c-4 -29 -15 -56 -32 -79c-17 -21 -38 -32 -69 -32c-28 0 -51 9 -75 20
c-24 9 -47 19 -66 19c-11 0 -23 -4 -31 -12c-8 -7 -11 -13 -18 -30h-52c13 61 43 110 106 110c53 0 96 -40 139 -40c24 0 38 17 46 44z" />
    <glyph glyph-name="Odieresis" unicode="&#xd6;" horiz-adv-x="760" 
d="M133 357c0 -144 73 -294 247 -294s247 150 247 294s-73 294 -247 294s-247 -150 -247 -294zM38 357c0 195 115 374 342 374s342 -179 342 -374s-115 -374 -342 -374s-342 179 -342 374zM242 792v104h90v-104h-90zM430 792v104h90v-104h-90z" />
    <glyph glyph-name="multiply" unicode="&#xd7;" horiz-adv-x="600" 
d="M119 24l-48 48l182 182l-181 180l48 48l181 -180l180 180l48 -48l-180 -180l181 -182l-48 -48l-181 182z" />
    <glyph glyph-name="Oslash" unicode="&#xd8;" horiz-adv-x="760" 
d="M691 730l32 -30l-82 -90c55 -69 81 -158 81 -253c0 -195 -115 -374 -342 -374c-97 0 -173 33 -229 86l-81 -89l-33 30l84 92c-56 68 -83 159 -83 255c0 195 115 374 342 374c100 0 176 -33 232 -88zM579 541l-369 -407c39 -44 94 -71 170 -71c174 0 247 150 247 294
c0 65 -15 132 -48 184zM183 170l369 407c-39 45 -96 74 -172 74c-174 0 -247 -150 -247 -294c0 -68 15 -134 50 -187z" />
    <glyph glyph-name="Ugrave" unicode="&#xd9;" horiz-adv-x="722" 
d="M648 714v-456c0 -181 -102 -275 -281 -275c-184 0 -293 85 -293 275v456h95v-456c0 -127 71 -195 198 -195c121 0 186 68 186 195v456h95zM344 779l-131 143h109l86 -143h-64z" />
    <glyph glyph-name="Uacute" unicode="&#xda;" horiz-adv-x="722" 
d="M648 714v-456c0 -181 -102 -275 -281 -275c-184 0 -293 85 -293 275v456h95v-456c0 -127 71 -195 198 -195c121 0 186 68 186 195v456h95zM315 779l86 143h109l-131 -143h-64z" />
    <glyph glyph-name="Ucircumflex" unicode="&#xdb;" horiz-adv-x="722" 
d="M648 714v-456c0 -181 -102 -275 -281 -275c-184 0 -293 85 -293 275v456h95v-456c0 -127 71 -195 198 -195c121 0 186 68 186 195v456h95zM215 779l103 143h93l104 -143h-84l-69 96l-70 -96h-77z" />
    <glyph glyph-name="Udieresis" unicode="&#xdc;" horiz-adv-x="722" 
d="M648 714v-456c0 -181 -102 -275 -281 -275c-184 0 -293 85 -293 275v456h95v-456c0 -127 71 -195 198 -195c121 0 186 68 186 195v456h95zM223 792v104h90v-104h-90zM411 792v104h90v-104h-90z" />
    <glyph glyph-name="Yacute" unicode="&#xdd;" horiz-adv-x="648" 
d="M646 714l-273 -422v-292h-95v292l-276 422h113l214 -340l209 340h108zM294 779l86 143h109l-131 -143h-64z" />
    <glyph glyph-name="Thorn" unicode="&#xde;" horiz-adv-x="648" 
d="M173 520v-262h186c108 -1 156 45 156 130c0 87 -48 132 -156 132h-186zM173 0h-95v714h95v-114h218c143 0 219 -79 219 -212s-76 -211 -219 -210h-218v-178z" />
    <glyph glyph-name="germandbls" unicode="&#xdf;" 
d="M64 0v531c0 119 78 200 198 200c99 0 207 -59 207 -175c0 -75 -29 -131 -104 -155v-2c91 -11 136 -92 136 -179c0 -137 -95 -232 -231 -232c-15 0 -28 1 -43 4v74c11 -3 23 -3 34 -3c92 0 150 59 150 146c0 131 -72 150 -184 150v68c80 -5 152 24 152 116
c0 63 -48 113 -111 113c-70 0 -119 -29 -119 -140v-516h-85z" />
    <glyph glyph-name="agrave" unicode="&#xe0;" horiz-adv-x="537" 
d="M522 68v-66c-15 -9 -36 -14 -61 -14c-44 0 -72 24 -72 80c-47 -56 -110 -80 -182 -80c-94 0 -171 41 -171 145c0 117 87 143 175 159c93 19 174 11 174 76c0 75 -62 86 -115 86c-72 0 -125 -22 -129 -98h-85c5 128 103 173 219 173c93 0 194 -21 194 -142v-266
c0 -40 0 -58 27 -58c8 0 17 2 26 5zM384 180v87c-66 -49 -258 -1 -258 -128c0 -56 48 -76 100 -76c112 0 158 69 158 117zM271 589l-131 143h109l86 -143h-64z" />
    <glyph glyph-name="aacute" unicode="&#xe1;" horiz-adv-x="537" 
d="M522 68v-66c-15 -9 -36 -14 -61 -14c-44 0 -72 24 -72 80c-47 -56 -110 -80 -182 -80c-94 0 -171 41 -171 145c0 117 87 143 175 159c93 19 174 11 174 76c0 75 -62 86 -115 86c-72 0 -125 -22 -129 -98h-85c5 128 103 173 219 173c93 0 194 -21 194 -142v-266
c0 -40 0 -58 27 -58c8 0 17 2 26 5zM384 180v87c-66 -49 -258 -1 -258 -128c0 -56 48 -76 100 -76c112 0 158 69 158 117zM232 589l86 143h109l-131 -143h-64z" />
    <glyph glyph-name="acircumflex" unicode="&#xe2;" horiz-adv-x="537" 
d="M522 68v-66c-15 -9 -36 -14 -61 -14c-44 0 -72 24 -72 80c-47 -56 -110 -80 -182 -80c-94 0 -171 41 -171 145c0 117 87 143 175 159c93 19 174 11 174 76c0 75 -62 86 -115 86c-72 0 -125 -22 -129 -98h-85c5 128 103 173 219 173c93 0 194 -21 194 -142v-266
c0 -40 0 -58 27 -58c8 0 17 2 26 5zM384 180v87c-66 -49 -258 -1 -258 -128c0 -56 48 -76 100 -76c112 0 158 69 158 117zM124 589l103 143h93l104 -143h-84l-69 96l-70 -96h-77z" />
    <glyph glyph-name="atilde" unicode="&#xe3;" horiz-adv-x="537" 
d="M522 68v-66c-15 -9 -36 -14 -61 -14c-44 0 -72 24 -72 80c-47 -56 -110 -80 -182 -80c-94 0 -171 41 -171 145c0 117 87 143 175 159c93 19 174 11 174 76c0 75 -62 86 -115 86c-72 0 -125 -22 -129 -98h-85c5 128 103 173 219 173c93 0 194 -21 194 -142v-266
c0 -40 0 -58 27 -58c8 0 17 2 26 5zM384 180v87c-66 -49 -258 -1 -258 -128c0 -56 48 -76 100 -76c112 0 158 69 158 117zM395 717h52c-4 -29 -15 -56 -32 -79c-17 -21 -38 -32 -69 -32c-28 0 -51 9 -75 20c-24 9 -47 19 -66 19c-11 0 -23 -4 -31 -12c-8 -7 -11 -13 -18 -30
h-52c13 61 43 110 106 110c53 0 96 -40 139 -40c24 0 38 17 46 44z" />
    <glyph glyph-name="adieresis" unicode="&#xe4;" horiz-adv-x="537" 
d="M133 602v104h90v-104h-90zM321 602v104h90v-104h-90zM522 68v-66c-15 -9 -36 -14 -61 -14c-44 0 -72 24 -72 80c-47 -56 -110 -80 -182 -80c-94 0 -171 41 -171 145c0 117 87 143 175 159c93 19 174 11 174 76c0 75 -62 86 -115 86c-72 0 -125 -22 -129 -98h-85
c5 128 103 173 219 173c93 0 194 -21 194 -142v-266c0 -40 0 -58 27 -58c8 0 17 2 26 5zM384 180v87c-66 -49 -258 -1 -258 -128c0 -56 48 -76 100 -76c112 0 158 69 158 117z" />
    <glyph glyph-name="aring" unicode="&#xe5;" horiz-adv-x="537" 
d="M522 68v-66c-15 -9 -36 -14 -61 -14c-44 0 -72 24 -72 80c-47 -56 -110 -80 -182 -80c-94 0 -171 41 -171 145c0 117 87 143 175 159c93 19 174 11 174 76c0 75 -62 86 -115 86c-72 0 -125 -22 -129 -98h-85c5 128 103 173 219 173c93 0 194 -21 194 -142v-266
c0 -40 0 -58 27 -58c8 0 17 2 26 5zM384 180v87c-66 -49 -258 -1 -258 -128c0 -56 48 -76 100 -76c112 0 158 69 158 117zM160 675c0 62 52 112 113 112s113 -50 113 -112s-52 -112 -113 -112s-113 50 -113 112zM206 674c0 -39 28 -68 67 -68s67 29 67 68s-28 68 -67 68
s-67 -29 -67 -68z" />
    <glyph glyph-name="ae" unicode="&#xe6;" horiz-adv-x="870" 
d="M846 233h-379c0 -92 50 -170 155 -170c64 0 115 32 131 100h87c-25 -113 -108 -175 -224 -175c-80 0 -152 24 -187 101c-39 -71 -122 -101 -218 -101c-99 0 -175 41 -175 145c0 117 87 143 175 159c125 24 176 20 176 82c0 70 -61 80 -117 80c-72 0 -125 -22 -129 -98
h-85c5 128 103 173 219 173c60 0 141 -10 173 -75c35 53 102 75 165 75c180 0 233 -135 233 -296zM126 139c0 -56 48 -76 100 -76c112 0 161 69 161 117v87c-35 -22 -103 -24 -157 -35c-56 -11 -104 -29 -104 -93zM467 308h289c-3 81 -52 146 -143 146s-146 -62 -146 -146z
" />
    <glyph glyph-name="ccedilla" unicode="&#xe7;" horiz-adv-x="537" 
d="M503 351h-88c-13 65 -57 103 -128 103c-123 0 -161 -98 -161 -202c0 -96 43 -189 151 -189c83 0 131 47 142 126h87c-19 -121 -92 -195 -213 -200l-33 -42l2 -2c7 5 18 7 33 7c43 0 84 -24 84 -73c0 -67 -68 -89 -124 -89c-32 0 -61 8 -92 19l18 44c16 -7 40 -13 61 -13
c27 0 62 8 62 31c0 19 -20 31 -47 31c-16 0 -26 -3 -41 -8l-17 28l53 68c-141 11 -216 117 -216 262c0 155 80 277 244 277c118 0 210 -55 223 -178z" />
    <glyph glyph-name="egrave" unicode="&#xe8;" horiz-adv-x="537" 
d="M126 308h297c-5 81 -64 146 -149 146c-88 0 -143 -66 -148 -146zM421 164h84c-23 -115 -104 -176 -221 -176c-165 0 -243 115 -248 272c0 156 102 269 243 269c183 0 239 -171 234 -296h-387c-3 -90 48 -170 161 -170c71 0 119 33 134 101zM280 589l-131 143h109l86 -143
h-64z" />
    <glyph glyph-name="eacute" unicode="&#xe9;" horiz-adv-x="537" 
d="M126 308h297c-5 81 -64 146 -149 146c-88 0 -143 -66 -148 -146zM421 164h84c-23 -115 -104 -176 -221 -176c-165 0 -243 115 -248 272c0 156 102 269 243 269c183 0 239 -171 234 -296h-387c-3 -90 48 -170 161 -170c71 0 119 33 134 101zM240 589l86 143h109l-131 -143
h-64z" />
    <glyph glyph-name="ecircumflex" unicode="&#xea;" horiz-adv-x="537" 
d="M126 308h297c-5 81 -64 146 -149 146c-88 0 -143 -66 -148 -146zM421 164h84c-23 -115 -104 -176 -221 -176c-165 0 -243 115 -248 272c0 156 102 269 243 269c183 0 239 -171 234 -296h-387c-3 -90 48 -170 161 -170c71 0 119 33 134 101zM131 589l103 143h93l104 -143
h-84l-69 96l-70 -96h-77z" />
    <glyph glyph-name="edieresis" unicode="&#xeb;" horiz-adv-x="537" 
d="M126 308h297c-5 81 -64 146 -149 146c-88 0 -143 -66 -148 -146zM421 164h84c-23 -115 -104 -176 -221 -176c-165 0 -243 115 -248 272c0 156 102 269 243 269c183 0 239 -171 234 -296h-387c-3 -90 48 -170 161 -170c71 0 119 33 134 101zM139 602v104h90v-104h-90z
M327 602v104h90v-104h-90z" />
    <glyph glyph-name="igrave" unicode="&#xec;" horiz-adv-x="222" 
d="M154 0h-85v517h85v-517zM91 589l-131 143h109l86 -143h-64z" />
    <glyph glyph-name="iacute" unicode="&#xed;" horiz-adv-x="222" 
d="M154 0h-85v517h85v-517zM67 589l86 143h109l-131 -143h-64z" />
    <glyph glyph-name="icircumflex" unicode="&#xee;" horiz-adv-x="222" 
d="M154 0h-85v517h85v-517zM-37 589l103 143h93l104 -143h-84l-69 96l-70 -96h-77z" />
    <glyph glyph-name="idieresis" unicode="&#xef;" horiz-adv-x="222" 
d="M-27 602v104h90v-104h-90zM161 602v104h90v-104h-90zM154 0h-85v517h85v-517z" />
    <glyph glyph-name="eth" unicode="&#xf0;" horiz-adv-x="574" 
d="M282 431c-103 0 -156 -70 -156 -173c0 -125 72 -195 161 -195s161 70 161 195c0 92 -49 173 -166 173zM272 506c53 0 103 -15 139 -56h2c-32 68 -90 130 -122 151l-115 -54l-38 40l109 51c-21 19 -51 37 -70 48l70 45c19 -13 50 -35 77 -56l120 56l35 -37l-115 -53
c120 -99 174 -230 174 -383c0 -151 -87 -270 -251 -270s-251 119 -251 270c0 130 84 248 236 248z" />
    <glyph glyph-name="ntilde" unicode="&#xf1;" 
d="M64 0v517h80v-82h2c36 64 93 94 168 94c136 0 178 -78 178 -189v-340h-85v350c0 64 -40 104 -105 104c-103 0 -153 -69 -153 -162v-292h-85zM398 717h52c-4 -29 -15 -56 -32 -79c-17 -21 -38 -32 -69 -32c-28 0 -51 9 -75 20c-24 9 -47 19 -66 19c-11 0 -23 -4 -31 -12
c-8 -7 -11 -13 -18 -30h-52c13 61 43 110 106 110c53 0 96 -40 139 -40c24 0 38 17 46 44z" />
    <glyph glyph-name="ograve" unicode="&#xf2;" horiz-adv-x="574" 
d="M126 258c0 -125 72 -195 161 -195s161 70 161 195s-72 196 -161 196s-161 -71 -161 -196zM36 258c0 152 87 271 251 271s251 -119 251 -271c0 -151 -87 -270 -251 -270s-251 119 -251 270zM259 589l-131 143h109l86 -143h-64z" />
    <glyph glyph-name="oacute" unicode="&#xf3;" horiz-adv-x="574" 
d="M126 258c0 -125 72 -195 161 -195s161 70 161 195s-72 196 -161 196s-161 -71 -161 -196zM36 258c0 152 87 271 251 271s251 -119 251 -271c0 -151 -87 -270 -251 -270s-251 119 -251 270zM238 589l86 143h109l-131 -143h-64z" />
    <glyph glyph-name="ocircumflex" unicode="&#xf4;" horiz-adv-x="574" 
d="M126 258c0 -125 72 -195 161 -195s161 70 161 195s-72 196 -161 196s-161 -71 -161 -196zM36 258c0 152 87 271 251 271s251 -119 251 -271c0 -151 -87 -270 -251 -270s-251 119 -251 270zM139 589l103 143h93l104 -143h-84l-69 96l-70 -96h-77z" />
    <glyph glyph-name="otilde" unicode="&#xf5;" horiz-adv-x="574" 
d="M126 258c0 -125 72 -195 161 -195s161 70 161 195s-72 196 -161 196s-161 -71 -161 -196zM36 258c0 152 87 271 251 271s251 -119 251 -271c0 -151 -87 -270 -251 -270s-251 119 -251 270zM408 717h52c-4 -29 -15 -56 -32 -79c-17 -21 -38 -32 -69 -32
c-28 0 -51 9 -75 20c-24 9 -47 19 -66 19c-11 0 -23 -4 -31 -12c-8 -7 -11 -13 -18 -30h-52c13 61 43 110 106 110c53 0 96 -40 139 -40c24 0 38 17 46 44z" />
    <glyph glyph-name="odieresis" unicode="&#xf6;" horiz-adv-x="574" 
d="M126 258c0 -125 72 -195 161 -195s161 70 161 195s-72 196 -161 196s-161 -71 -161 -196zM36 258c0 152 87 271 251 271s251 -119 251 -271c0 -151 -87 -270 -251 -270s-251 119 -251 270zM148 602v104h90v-104h-90zM336 602v104h90v-104h-90z" />
    <glyph glyph-name="divide" unicode="&#xf7;" horiz-adv-x="600" 
d="M236 47c0 35 29 64 64 64s64 -29 64 -64c0 -32 -30 -64 -63 -64c-35 0 -65 29 -65 64zM236 459c0 35 29 64 64 64s64 -29 64 -64c0 -32 -30 -64 -63 -64c-35 0 -65 29 -65 64zM48 219v68h504v-68h-504z" />
    <glyph glyph-name="oslash" unicode="&#xf8;" horiz-adv-x="574" 
d="M540 509l-60 -66c39 -47 58 -112 58 -185c0 -151 -87 -270 -251 -270c-69 0 -124 21 -165 57l-60 -67l-28 24l62 69c-40 49 -60 114 -60 187c0 152 87 271 251 271c71 0 125 -20 168 -59l58 65zM420 377l-242 -269c30 -30 66 -45 109 -45c89 0 161 70 161 195
c0 49 -11 88 -28 119zM156 137l242 270c-29 31 -66 47 -111 47c-89 0 -161 -71 -161 -196c0 -48 11 -88 30 -121z" />
    <glyph glyph-name="ugrave" unicode="&#xf9;" 
d="M492 517v-517h-80v82h-2c-36 -64 -93 -94 -168 -94c-136 0 -178 78 -178 189v340h85v-350c0 -64 40 -104 105 -104c103 0 153 69 153 162v292h85zM256 589l-131 143h109l86 -143h-64z" />
    <glyph glyph-name="uacute" unicode="&#xfa;" 
d="M492 517v-517h-80v82h-2c-36 -64 -93 -94 -168 -94c-136 0 -178 78 -178 189v340h85v-350c0 -64 40 -104 105 -104c103 0 153 69 153 162v292h85zM229 589l86 143h109l-131 -143h-64z" />
    <glyph glyph-name="ucircumflex" unicode="&#xfb;" 
d="M492 517v-517h-80v82h-2c-36 -64 -93 -94 -168 -94c-136 0 -178 78 -178 189v340h85v-350c0 -64 40 -104 105 -104c103 0 153 69 153 162v292h85zM128 589l103 143h93l104 -143h-84l-69 96l-70 -96h-77z" />
    <glyph glyph-name="udieresis" unicode="&#xfc;" 
d="M492 517v-517h-80v82h-2c-36 -64 -93 -94 -168 -94c-136 0 -178 78 -178 189v340h85v-350c0 -64 40 -104 105 -104c103 0 153 69 153 162v292h85zM138 602v104h90v-104h-90zM326 602v104h90v-104h-90z" />
    <glyph glyph-name="yacute" unicode="&#xfd;" horiz-adv-x="500" 
d="M492 517l-225 -586c-40 -100 -74 -138 -150 -138c-20 0 -40 2 -59 9v78c16 -5 33 -12 50 -12c35 0 54 16 70 47l35 88l-205 514h96l151 -423h2l145 423h90zM221 589l86 143h109l-131 -143h-64z" />
    <glyph glyph-name="thorn" unicode="&#xfe;" horiz-adv-x="593" 
d="M152 714v-267h2c28 57 93 82 165 82c159 0 238 -126 238 -272c0 -147 -78 -269 -236 -269c-52 0 -130 20 -167 81h-2v-267h-85v912h85zM467 263c0 97 -50 191 -160 191c-115 0 -158 -99 -158 -195c0 -101 46 -196 163 -196c116 0 155 99 155 200z" />
    <glyph glyph-name="ydieresis" unicode="&#xff;" horiz-adv-x="500" 
d="M492 517l-225 -586c-40 -100 -74 -138 -150 -138c-20 0 -40 2 -59 9v78c16 -5 33 -12 50 -12c35 0 54 16 70 47l35 88l-205 514h96l151 -423h2l145 423h90zM118 602v104h90v-104h-90zM306 602v104h90v-104h-90z" />
    <glyph glyph-name="Amacron" unicode="&#x100;" horiz-adv-x="648" 
d="M322 628l-121 -333h242l-119 333h-2zM-7 0l279 714h105l279 -714h-105l-78 215h-302l-80 -215h-98zM153 817v55h341v-55h-341z" />
    <glyph glyph-name="amacron" unicode="&#x101;" horiz-adv-x="537" 
d="M522 68v-66c-15 -9 -36 -14 -61 -14c-44 0 -72 24 -72 80c-47 -56 -110 -80 -182 -80c-94 0 -171 41 -171 145c0 117 87 143 175 159c93 19 174 11 174 76c0 75 -62 86 -115 86c-72 0 -125 -22 -129 -98h-85c5 128 103 173 219 173c93 0 194 -21 194 -142v-266
c0 -40 0 -58 27 -58c8 0 17 2 26 5zM384 180v87c-66 -49 -258 -1 -258 -128c0 -56 48 -76 100 -76c112 0 158 69 158 117zM108 627v55h341v-55h-341z" />
    <glyph glyph-name="Abreve" unicode="&#x102;" horiz-adv-x="648" 
d="M322 628l-121 -333h242l-119 333h-2zM-7 0l279 714h105l279 -714h-105l-78 215h-302l-80 -215h-98zM167 919h50c16 -55 53 -83 112 -83c57 0 79 32 99 83h51c-15 -85 -70 -138 -158 -138c-92 0 -141 49 -154 138z" />
    <glyph glyph-name="abreve" unicode="&#x103;" horiz-adv-x="537" 
d="M522 68v-66c-15 -9 -36 -14 -61 -14c-44 0 -72 24 -72 80c-47 -56 -110 -80 -182 -80c-94 0 -171 41 -171 145c0 117 87 143 175 159c93 19 174 11 174 76c0 75 -62 86 -115 86c-72 0 -125 -22 -129 -98h-85c5 128 103 173 219 173c93 0 194 -21 194 -142v-266
c0 -40 0 -58 27 -58c8 0 17 2 26 5zM384 180v87c-66 -49 -258 -1 -258 -128c0 -56 48 -76 100 -76c112 0 158 69 158 117zM120 729h50c16 -55 53 -83 112 -83c57 0 79 32 99 83h51c-15 -85 -70 -138 -158 -138c-92 0 -141 49 -154 138z" />
    <glyph glyph-name="Aogonek" unicode="&#x104;" horiz-adv-x="648" 
d="M656 0h-65c-68 -57 -84 -88 -84 -118c0 -21 11 -42 38 -42c31 0 47 11 62 30l32 -18c-27 -47 -67 -62 -108 -62c-24 0 -92 2 -92 82c0 16 14 74 112 128l-78 215h-302l-80 -215h-98l279 714h105zM322 628l-121 -333h242l-119 333h-2z" />
    <glyph glyph-name="aogonek" unicode="&#x105;" horiz-adv-x="537" 
d="M522 68v-66c-15 -9 -36 -14 -61 -14c-3 0 -6 0 -9 1c-11 -10 -21 -19 -28 -27c-33 -33 -42 -59 -42 -80s11 -42 38 -42c31 0 47 11 62 30l32 -18c-27 -47 -67 -62 -108 -62c-24 0 -92 2 -92 82c0 15 8 45 53 88c14 13 32 25 54 38c-5 2 -9 5 -13 9c-13 13 -19 33 -19 61
c-47 -56 -110 -80 -182 -80c-94 0 -171 41 -171 145c0 117 87 143 175 159c93 19 174 11 174 76c0 75 -62 86 -115 86c-72 0 -125 -22 -129 -98h-85c5 128 103 173 219 173c93 0 194 -21 194 -142v-266c0 -40 0 -58 27 -58c8 0 17 2 26 5zM384 180v87
c-66 -49 -258 -1 -258 -128c0 -56 48 -76 100 -76c112 0 158 69 158 117z" />
    <glyph glyph-name="Cacute" unicode="&#x106;" horiz-adv-x="722" 
d="M675 499h-95c-21 101 -100 152 -200 152c-170 0 -242 -140 -242 -289c0 -163 72 -299 243 -299c124 0 198 88 206 206h95c-19 -179 -128 -286 -309 -286c-221 0 -330 164 -330 372s118 376 338 376c149 0 273 -80 294 -232zM346 779l86 143h109l-131 -143h-64z" />
    <glyph glyph-name="cacute" unicode="&#x107;" horiz-adv-x="537" 
d="M503 351h-88c-13 65 -57 103 -128 103c-123 0 -161 -98 -161 -202c0 -96 43 -189 151 -189c83 0 131 47 142 126h87c-19 -127 -97 -201 -228 -201c-158 0 -242 109 -242 264s80 277 244 277c118 0 210 -55 223 -178zM243 589l86 143h109l-131 -143h-64z" />
    <glyph glyph-name="Ccircumflex" unicode="&#x108;" horiz-adv-x="722" 
d="M675 499h-95c-21 101 -100 152 -200 152c-170 0 -242 -140 -242 -289c0 -163 72 -299 243 -299c124 0 198 88 206 206h95c-19 -179 -128 -286 -309 -286c-221 0 -330 164 -330 372s118 376 338 376c149 0 273 -80 294 -232zM236 779l103 143h93l104 -143h-84l-69 96
l-70 -96h-77z" />
    <glyph glyph-name="ccircumflex" unicode="&#x109;" horiz-adv-x="537" 
d="M503 351h-88c-13 65 -57 103 -128 103c-123 0 -161 -98 -161 -202c0 -96 43 -189 151 -189c83 0 131 47 142 126h87c-19 -127 -97 -201 -228 -201c-158 0 -242 109 -242 264s80 277 244 277c118 0 210 -55 223 -178zM136 589l103 143h93l104 -143h-84l-69 96l-70 -96h-77
z" />
    <glyph glyph-name="Cdotaccent" unicode="&#x10a;" horiz-adv-x="722" 
d="M675 499h-95c-21 101 -100 152 -200 152c-170 0 -242 -140 -242 -289c0 -163 72 -299 243 -299c124 0 198 88 206 206h95c-19 -179 -128 -286 -309 -286c-221 0 -330 164 -330 372s118 376 338 376c149 0 273 -80 294 -232zM422 898v-104h-90v104h90z" />
    <glyph glyph-name="cdotaccent" unicode="&#x10b;" horiz-adv-x="537" 
d="M503 351h-88c-13 65 -57 103 -128 103c-123 0 -161 -98 -161 -202c0 -96 43 -189 151 -189c83 0 131 47 142 126h87c-19 -127 -97 -201 -228 -201c-158 0 -242 109 -242 264s80 277 244 277c118 0 210 -55 223 -178zM326 708v-104h-90v104h90z" />
    <glyph glyph-name="Ccaron" unicode="&#x10c;" horiz-adv-x="722" 
d="M675 499h-95c-21 101 -100 152 -200 152c-170 0 -242 -140 -242 -289c0 -163 72 -299 243 -299c124 0 198 88 206 206h95c-19 -179 -128 -286 -309 -286c-221 0 -330 164 -330 372s118 376 338 376c149 0 273 -80 294 -232zM527 922l-103 -143h-93l-104 143h84l69 -96
l70 96h77z" />
    <glyph glyph-name="ccaron" unicode="&#x10d;" horiz-adv-x="537" 
d="M503 351h-88c-13 65 -57 103 -128 103c-123 0 -161 -98 -161 -202c0 -96 43 -189 151 -189c83 0 131 47 142 126h87c-19 -127 -97 -201 -228 -201c-158 0 -242 109 -242 264s80 277 244 277c118 0 210 -55 223 -178zM426 732l-103 -143h-93l-104 143h84l69 -96l70 96h77z
" />
    <glyph glyph-name="Dcaron" unicode="&#x10e;" horiz-adv-x="704" 
d="M173 634v-554h158c65 0 240 18 240 281c0 170 -63 273 -238 273h-160zM78 0v714h245c220 0 343 -111 343 -340c0 -239 -105 -374 -343 -374h-245zM467 922l-103 -143h-93l-104 143h84l69 -96l70 96h77z" />
    <glyph glyph-name="dcaron" unicode="&#x10f;" horiz-adv-x="653" 
d="M126 254c0 -97 50 -191 160 -191c115 0 158 99 158 195c0 101 -46 196 -163 196c-116 0 -155 -99 -155 -200zM526 714v-714h-85v70h-2c-28 -57 -93 -82 -165 -82c-159 0 -238 126 -238 272s78 269 236 269c52 0 130 -20 167 -81h2v266h85zM576 571l26 143h109l-75 -143
h-60z" />
    <glyph glyph-name="Dcroat" unicode="&#x110;" horiz-adv-x="704" 
d="M173 634v-227h214v-68h-214v-259h158c65 0 240 18 240 281c0 170 -63 273 -238 273h-160zM78 0v339h-70v68h70v307h245c220 0 343 -111 343 -340c0 -239 -105 -374 -343 -374h-245z" />
    <glyph glyph-name="dcroat" unicode="&#x111;" horiz-adv-x="603" 
d="M271 583v55h170v76h85v-76h86v-55h-86v-583h-85v70h-2c-28 -57 -93 -82 -165 -82c-159 0 -238 126 -238 272s78 269 236 269c52 0 130 -20 167 -81h2v135h-170zM126 254c0 -97 50 -191 160 -191c115 0 158 99 158 195c0 101 -46 196 -163 196c-116 0 -155 -99 -155 -200z
" />
    <glyph glyph-name="Emacron" unicode="&#x112;" horiz-adv-x="611" 
d="M78 0v714h493v-80h-398v-227h371v-80h-371v-247h401v-80h-496zM158 817v55h341v-55h-341z" />
    <glyph glyph-name="emacron" unicode="&#x113;" horiz-adv-x="537" 
d="M126 308h297c-5 81 -64 146 -149 146c-88 0 -143 -66 -148 -146zM421 164h84c-23 -115 -104 -176 -221 -176c-165 0 -243 115 -248 272c0 156 102 269 243 269c183 0 239 -171 234 -296h-387c-3 -90 48 -170 161 -170c71 0 119 33 134 101zM112 627v55h341v-55h-341z" />
    <glyph glyph-name="Ebreve" unicode="&#x114;" horiz-adv-x="611" 
d="M78 0v714h493v-80h-398v-227h371v-80h-371v-247h401v-80h-496zM163 919h50c16 -55 53 -83 112 -83c57 0 79 32 99 83h51c-15 -85 -70 -138 -158 -138c-92 0 -141 49 -154 138z" />
    <glyph glyph-name="ebreve" unicode="&#x115;" horiz-adv-x="537" 
d="M126 308h297c-5 81 -64 146 -149 146c-88 0 -143 -66 -148 -146zM421 164h84c-23 -115 -104 -176 -221 -176c-165 0 -243 115 -248 272c0 156 102 269 243 269c183 0 239 -171 234 -296h-387c-3 -90 48 -170 161 -170c71 0 119 33 134 101zM124 729h50
c16 -55 53 -83 112 -83c57 0 79 32 99 83h51c-15 -85 -70 -138 -158 -138c-92 0 -141 49 -154 138z" />
    <glyph glyph-name="Edotaccent" unicode="&#x116;" horiz-adv-x="611" 
d="M78 0v714h493v-80h-398v-227h371v-80h-371v-247h401v-80h-496zM370 898v-104h-90v104h90z" />
    <glyph glyph-name="edotaccent" unicode="&#x117;" horiz-adv-x="537" 
d="M126 308h297c-5 81 -64 146 -149 146c-88 0 -143 -66 -148 -146zM421 164h84c-23 -115 -104 -176 -221 -176c-165 0 -243 115 -248 272c0 156 102 269 243 269c183 0 239 -171 234 -296h-387c-3 -90 48 -170 161 -170c71 0 119 33 134 101zM325 708v-104h-90v104h90z" />
    <glyph glyph-name="Eogonek" unicode="&#x118;" horiz-adv-x="611" 
d="M574 0h-48c-68 -57 -84 -88 -84 -118c0 -21 11 -42 38 -42c31 0 47 11 62 30l32 -18c-27 -47 -67 -62 -108 -62c-24 0 -92 2 -92 82c0 16 14 74 112 128h-408v714h493v-80h-398v-227h371v-80h-371v-247h401v-80z" />
    <glyph glyph-name="eogonek" unicode="&#x119;" horiz-adv-x="537" 
d="M421 164h84c-11 -57 -36 -101 -75 -131c-32 -25 -71 -39 -117 -43c-11 -11 -21 -20 -29 -28c-33 -33 -42 -59 -42 -80s11 -42 38 -42c31 0 47 11 62 30l32 -18c-27 -47 -67 -62 -108 -62c-24 0 -92 2 -92 82c0 15 8 45 53 88c11 9 24 19 39 29c-34 1 -64 8 -90 19
c-91 43 -136 132 -140 252c0 156 102 269 243 269c183 0 239 -171 234 -296h-387c-3 -90 48 -170 161 -170c71 0 119 33 134 101zM126 308h297c-5 81 -64 146 -149 146c-88 0 -143 -66 -148 -146z" />
    <glyph glyph-name="Ecaron" unicode="&#x11a;" horiz-adv-x="611" 
d="M78 0v714h493v-80h-398v-227h371v-80h-371v-247h401v-80h-496zM473 922l-103 -143h-93l-104 143h84l69 -96l70 96h77z" />
    <glyph glyph-name="ecaron" unicode="&#x11b;" horiz-adv-x="537" 
d="M126 308h297c-5 81 -64 146 -149 146c-88 0 -143 -66 -148 -146zM421 164h84c-23 -115 -104 -176 -221 -176c-165 0 -243 115 -248 272c0 156 102 269 243 269c183 0 239 -171 234 -296h-387c-3 -90 48 -170 161 -170c71 0 119 33 134 101zM426 732l-103 -143h-93
l-104 143h84l69 -96l70 96h77z" />
    <glyph glyph-name="Gcircumflex" unicode="&#x11c;" horiz-adv-x="759" 
d="M637 0l-25 89c-56 -74 -146 -106 -229 -106c-213 0 -340 173 -340 360c0 208 114 388 340 388c155 0 281 -70 307 -237h-95c-19 108 -105 157 -212 157c-173 0 -245 -151 -245 -303c0 -149 86 -285 245 -285c148 0 234 102 229 233h-228v80h313v-376h-60zM243 779
l103 143h93l104 -143h-84l-69 96l-70 -96h-77z" />
    <glyph glyph-name="gcircumflex" unicode="&#x11d;" horiz-adv-x="574" 
d="M510 517v-473c0 -169 -76 -254 -240 -254c-97 0 -209 40 -214 152h85c3 -61 79 -84 134 -84c111 0 155 80 155 196v34h-2c-29 -63 -95 -94 -161 -94c-154 0 -231 121 -231 262c0 122 59 273 239 273c65 0 123 -29 154 -86h1v74h80zM272 69c112 0 154 103 154 200
c0 91 -40 185 -147 185c-109 0 -153 -89 -153 -188c0 -93 34 -197 146 -197zM147 589l103 143h93l104 -143h-84l-69 96l-70 -96h-77z" />
    <glyph glyph-name="Gbreve" unicode="&#x11e;" horiz-adv-x="759" 
d="M637 0l-25 89c-56 -74 -146 -106 -229 -106c-213 0 -340 173 -340 360c0 208 114 388 340 388c155 0 281 -70 307 -237h-95c-19 108 -105 157 -212 157c-173 0 -245 -151 -245 -303c0 -149 86 -285 245 -285c148 0 234 102 229 233h-228v80h313v-376h-60zM225 919h50
c16 -55 53 -83 112 -83c57 0 79 32 99 83h51c-15 -85 -70 -138 -158 -138c-92 0 -141 49 -154 138z" />
    <glyph glyph-name="gbreve" unicode="&#x11f;" horiz-adv-x="574" 
d="M510 517v-473c0 -169 -76 -254 -240 -254c-97 0 -209 40 -214 152h85c3 -61 79 -84 134 -84c111 0 155 80 155 196v34h-2c-29 -63 -95 -94 -161 -94c-154 0 -231 121 -231 262c0 122 59 273 239 273c65 0 123 -29 154 -86h1v74h80zM272 69c112 0 154 103 154 200
c0 91 -40 185 -147 185c-109 0 -153 -89 -153 -188c0 -93 34 -197 146 -197zM130 729h50c16 -55 53 -83 112 -83c57 0 79 32 99 83h51c-15 -85 -70 -138 -158 -138c-92 0 -141 49 -154 138z" />
    <glyph glyph-name="Gdotaccent" unicode="&#x120;" horiz-adv-x="759" 
d="M637 0l-25 89c-56 -74 -146 -106 -229 -106c-213 0 -340 173 -340 360c0 208 114 388 340 388c155 0 281 -70 307 -237h-95c-19 108 -105 157 -212 157c-173 0 -245 -151 -245 -303c0 -149 86 -285 245 -285c148 0 234 102 229 233h-228v80h313v-376h-60zM429 898v-104
h-90v104h90z" />
    <glyph glyph-name="gdotaccent" unicode="&#x121;" horiz-adv-x="574" 
d="M510 517v-473c0 -169 -76 -254 -240 -254c-97 0 -209 40 -214 152h85c3 -61 79 -84 134 -84c111 0 155 80 155 196v34h-2c-29 -63 -95 -94 -161 -94c-154 0 -231 121 -231 262c0 122 59 273 239 273c65 0 123 -29 154 -86h1v74h80zM272 69c112 0 154 103 154 200
c0 91 -40 185 -147 185c-109 0 -153 -89 -153 -188c0 -93 34 -197 146 -197zM332 708v-104h-90v104h90z" />
    <glyph glyph-name="Gcommaaccent" unicode="&#x122;" horiz-adv-x="759" 
d="M637 0l-25 89c-56 -74 -146 -106 -229 -106c-213 0 -340 173 -340 360c0 208 114 388 340 388c155 0 281 -70 307 -237h-95c-19 108 -105 157 -212 157c-173 0 -245 -151 -245 -303c0 -149 86 -285 245 -285c148 0 234 102 229 233h-228v80h313v-376h-60zM321 -138v88
h111v-77c0 -57 -40 -83 -99 -83v35c41 11 40 25 40 37h-52z" />
    <glyph glyph-name="gcommaaccent" unicode="&#x123;" horiz-adv-x="574" 
d="M510 517v-473c0 -169 -76 -254 -240 -254c-97 0 -209 40 -214 152h85c3 -61 79 -84 134 -84c111 0 155 80 155 196v34h-2c-29 -63 -95 -94 -161 -94c-154 0 -231 121 -231 262c0 122 59 273 239 273c65 0 123 -29 154 -86h1v74h80zM272 69c112 0 154 103 154 200
c0 91 -40 185 -147 185c-109 0 -153 -89 -153 -188c0 -93 34 -197 146 -197zM341 714v-88h-111v77c0 57 40 83 99 83v-35c-41 -11 -40 -25 -40 -37h52z" />
    <glyph glyph-name="Hcircumflex" unicode="&#x124;" horiz-adv-x="722" 
d="M78 0v714h95v-307h376v307h95v-714h-95v327h-376v-327h-95zM209 779l103 143h93l104 -143h-84l-69 96l-70 -96h-77z" />
    <glyph glyph-name="hcircumflex" unicode="&#x125;" 
d="M64 0v714h85v-273h2c27 63 102 88 163 88c136 0 178 -78 178 -189v-340h-85v350c0 64 -40 104 -105 104c-103 0 -153 -69 -153 -162v-292h-85zM128 779l103 143h93l104 -143h-84l-69 96l-70 -96h-77z" />
    <glyph glyph-name="Hbar" unicode="&#x126;" horiz-adv-x="722" 
d="M78 0v714h95v-197h376v197h95v-714h-95v317h-376v-317h-95zM173 397h376v65h-376v-65z" />
    <glyph glyph-name="hbar" unicode="&#x127;" horiz-adv-x="566" 
d="M-10 583v55h84v76h85v-76h142v-55h-142v-142h2c27 63 102 88 163 88c136 0 178 -78 178 -189v-340h-85v350c0 64 -40 104 -105 104c-103 0 -153 -69 -153 -162v-292h-85v583h-84z" />
    <glyph glyph-name="Itilde" unicode="&#x128;" horiz-adv-x="259" 
d="M82 0v714h95v-714h-95zM250 907h52c-4 -29 -15 -56 -32 -79c-17 -21 -38 -32 -69 -32c-28 0 -51 9 -75 20c-24 9 -47 19 -66 19c-11 0 -23 -4 -31 -12c-8 -7 -11 -13 -18 -30h-52c13 61 43 110 106 110c53 0 96 -40 139 -40c24 0 38 17 46 44z" />
    <glyph glyph-name="itilde" unicode="&#x129;" horiz-adv-x="222" 
d="M154 0h-85v517h85v-517zM232 717h52c-4 -29 -15 -56 -32 -79c-17 -21 -38 -32 -69 -32c-28 0 -51 9 -75 20c-24 9 -47 19 -66 19c-11 0 -23 -4 -31 -12c-8 -7 -11 -13 -18 -30h-52c13 61 43 110 106 110c53 0 96 -40 139 -40c24 0 38 17 46 44z" />
    <glyph glyph-name="Imacron" unicode="&#x12a;" horiz-adv-x="259" 
d="M82 0v714h95v-714h-95zM-40 817v55h341v-55h-341z" />
    <glyph glyph-name="imacron" unicode="&#x12b;" horiz-adv-x="222" 
d="M154 0h-85v517h85v-517zM-58 627v55h341v-55h-341z" />
    <glyph glyph-name="Iogonek" unicode="&#x12e;" horiz-adv-x="259" 
d="M82 0v714h95v-714c-60 -58 -75 -87 -75 -118c0 -25 13 -42 34 -42c25 0 41 11 56 30l28 -18c-25 -45 -55 -62 -91 -62c-20 0 -89 2 -89 82c0 19 13 73 101 128h-59z" />
    <glyph glyph-name="iogonek" unicode="&#x12f;" horiz-adv-x="222" 
d="M154 517v-517c-60 -58 -75 -87 -75 -118c0 -21 10 -42 34 -42c27 0 43 11 56 30l28 -18c-24 -47 -60 -62 -97 -62c-21 0 -83 2 -83 82c0 17 14 73 101 128h-49v517h85zM154 714v-104h-85v104h85z" />
    <glyph glyph-name="Idotaccent" unicode="&#x130;" horiz-adv-x="259" 
d="M82 0v714h95v-714h-95zM175 898v-104h-90v104h90z" />
    <glyph glyph-name="dotlessi" unicode="&#x131;" horiz-adv-x="222" 
d="M154 0h-85v517h85v-517z" />
    <glyph glyph-name="Jcircumflex" unicode="&#x134;" horiz-adv-x="519" 
d="M441 714v-536c0 -96 -51 -195 -211 -195c-133 0 -208 73 -208 208v44h95v-30c0 -83 22 -142 115 -142c87 0 114 50 114 129v522h95zM241 779l103 143h93l104 -143h-84l-69 96l-70 -96h-77z" />
    <glyph glyph-name="jcircumflex" unicode="&#x135;" horiz-adv-x="222" 
d="M154 517v-583c0 -92 -48 -132 -124 -132c-15 0 -29 1 -44 4v73c6 -1 12 -2 17 -2h18c37 0 48 18 48 71v569h85zM-39 589l103 143h93l104 -143h-84l-69 96l-70 -96h-77z" />
    <glyph glyph-name="Kcommaaccent" unicode="&#x136;" horiz-adv-x="667" 
d="M78 0v714h95v-356l362 356h123l-301 -288l313 -426h-120l-258 361l-119 -111v-250h-95zM286 -138v88h111v-77c0 -57 -40 -83 -99 -83v35c41 11 40 25 40 37h-52z" />
    <glyph glyph-name="kcommaaccent" unicode="&#x137;" horiz-adv-x="519" 
d="M69 0v714h85v-423l236 226h114l-205 -188l220 -329h-108l-177 270l-80 -74v-196h-85zM217 -138v88h111v-77c0 -57 -40 -83 -99 -83v35c41 11 40 25 40 37h-52z" />
    <glyph glyph-name="Lacute" unicode="&#x139;" 
d="M78 0v714h95v-634h378v-80h-473zM93 779l86 143h109l-131 -143h-64z" />
    <glyph glyph-name="lacute" unicode="&#x13a;" horiz-adv-x="222" 
d="M69 0v714h85v-714h-85zM70 779l86 143h109l-131 -143h-64z" />
    <glyph glyph-name="Lcommaaccent" unicode="&#x13b;" 
d="M78 0v714h95v-634h378v-80h-473zM243 -138v88h111v-77c0 -57 -40 -83 -99 -83v35c41 11 40 25 40 37h-52z" />
    <glyph glyph-name="lcommaaccent" unicode="&#x13c;" horiz-adv-x="222" 
d="M69 0v714h85v-714h-85zM56 -138v88h111v-77c0 -57 -40 -83 -99 -83v35c41 11 40 25 40 37h-52z" />
    <glyph glyph-name="Lcaron" unicode="&#x13d;" 
d="M78 0v714h95v-634h378v-80h-473zM280 571l26 143h109l-75 -143h-60z" />
    <glyph glyph-name="lcaron" unicode="&#x13e;" horiz-adv-x="281" 
d="M69 0v714h85v-714h-85zM204 571l26 143h109l-75 -143h-60z" />
    <glyph glyph-name="Ldot" unicode="&#x13f;" 
d="M78 0v714h95v-634h378v-80h-473zM399 517v-104h-90v104h90z" />
    <glyph glyph-name="ldot" unicode="&#x140;" horiz-adv-x="348" 
d="M69 0v714h85v-714h-85zM310 517v-104h-90v104h90z" />
    <glyph glyph-name="Lslash" unicode="&#x141;" 
d="M78 0v240l-79 -56v76l79 56v398h95v-330l228 160v-76l-228 -160v-228h378v-80h-473z" />
    <glyph glyph-name="lslash" unicode="&#x142;" horiz-adv-x="222" 
d="M69 0v321l-70 -55v71l70 56v321h85v-254l70 56v-71l-70 -56v-389h-85z" />
    <glyph glyph-name="Nacute" unicode="&#x143;" horiz-adv-x="722" 
d="M77 0v714h101l376 -579h2v579h90v-714h-104l-373 573h-2v-573h-90zM322 779l86 143h109l-131 -143h-64z" />
    <glyph glyph-name="nacute" unicode="&#x144;" 
d="M64 0v517h80v-82h2c36 64 93 94 168 94c136 0 178 -78 178 -189v-340h-85v350c0 64 -40 104 -105 104c-103 0 -153 -69 -153 -162v-292h-85zM242 589l86 143h109l-131 -143h-64z" />
    <glyph glyph-name="Ncommaaccent" unicode="&#x145;" horiz-adv-x="722" 
d="M77 0v714h101l376 -579h2v579h90v-714h-104l-373 573h-2v-573h-90zM302 -138v88h111v-77c0 -57 -40 -83 -99 -83v35c41 11 40 25 40 37h-52z" />
    <glyph glyph-name="ncommaaccent" unicode="&#x146;" 
d="M64 0v517h80v-82h2c36 64 93 94 168 94c136 0 178 -78 178 -189v-340h-85v350c0 64 -40 104 -105 104c-103 0 -153 -69 -153 -162v-292h-85zM221 -138v88h111v-77c0 -57 -40 -83 -99 -83v35c41 11 40 25 40 37h-52z" />
    <glyph glyph-name="Ncaron" unicode="&#x147;" horiz-adv-x="722" 
d="M77 0v714h101l376 -579h2v579h90v-714h-104l-373 573h-2v-573h-90zM509 922l-103 -143h-93l-104 143h84l69 -96l70 96h77z" />
    <glyph glyph-name="ncaron" unicode="&#x148;" 
d="M64 0v517h80v-82h2c36 64 93 94 168 94c136 0 178 -78 178 -189v-340h-85v350c0 64 -40 104 -105 104c-103 0 -153 -69 -153 -162v-292h-85zM429 732l-103 -143h-93l-104 143h84l69 -96l70 96h77z" />
    <glyph glyph-name="Omacron" unicode="&#x14c;" horiz-adv-x="760" 
d="M133 357c0 -144 73 -294 247 -294s247 150 247 294s-73 294 -247 294s-247 -150 -247 -294zM38 357c0 195 115 374 342 374s342 -179 342 -374s-115 -374 -342 -374s-342 179 -342 374zM211 817v55h341v-55h-341z" />
    <glyph glyph-name="omacron" unicode="&#x14d;" horiz-adv-x="574" 
d="M126 258c0 -125 72 -195 161 -195s161 70 161 195s-72 196 -161 196s-161 -71 -161 -196zM36 258c0 152 87 271 251 271s251 -119 251 -271c0 -151 -87 -270 -251 -270s-251 119 -251 270zM121 627v55h341v-55h-341z" />
    <glyph glyph-name="Obreve" unicode="&#x14e;" horiz-adv-x="760" 
d="M133 357c0 -144 73 -294 247 -294s247 150 247 294s-73 294 -247 294s-247 -150 -247 -294zM38 357c0 195 115 374 342 374s342 -179 342 -374s-115 -374 -342 -374s-342 179 -342 374zM225 919h50c16 -55 53 -83 112 -83c57 0 79 32 99 83h51
c-15 -85 -70 -138 -158 -138c-92 0 -141 49 -154 138z" />
    <glyph glyph-name="obreve" unicode="&#x14f;" horiz-adv-x="574" 
d="M126 258c0 -125 72 -195 161 -195s161 70 161 195s-72 196 -161 196s-161 -71 -161 -196zM36 258c0 152 87 271 251 271s251 -119 251 -271c0 -151 -87 -270 -251 -270s-251 119 -251 270zM132 729h50c16 -55 53 -83 112 -83c57 0 79 32 99 83h51
c-15 -85 -70 -138 -158 -138c-92 0 -141 49 -154 138z" />
    <glyph glyph-name="Ohungarumlaut" unicode="&#x150;" horiz-adv-x="760" 
d="M133 357c0 -144 73 -294 247 -294s247 150 247 294s-73 294 -247 294s-247 -150 -247 -294zM38 357c0 195 115 374 342 374s342 -179 342 -374s-115 -374 -342 -374s-342 179 -342 374zM424 779l81 143h105l-120 -143h-66zM268 779l81 143h105l-120 -143h-66z" />
    <glyph glyph-name="ohungarumlaut" unicode="&#x151;" horiz-adv-x="574" 
d="M126 258c0 -125 72 -195 161 -195s161 70 161 195s-72 196 -161 196s-161 -71 -161 -196zM36 258c0 152 87 271 251 271s251 -119 251 -271c0 -151 -87 -270 -251 -270s-251 119 -251 270zM327 589l81 143h105l-120 -143h-66zM171 589l81 143h105l-120 -143h-66z" />
    <glyph glyph-name="OE" unicode="&#x152;" horiz-adv-x="1074" 
d="M551 0v69h-2c-35 -56 -111 -86 -184 -86c-211 0 -327 163 -327 372c0 215 123 376 335 376c67 0 146 -24 176 -76h2v59h477v-80h-382v-227h350v-80h-350v-247h388v-80h-483zM372 63c100 0 179 58 179 141v301c0 21 0 46 -15 69c-27 41 -86 77 -162 77
c-162 0 -241 -139 -241 -300c0 -160 83 -288 239 -288z" />
    <glyph glyph-name="oe" unicode="&#x153;" horiz-adv-x="891" 
d="M415 260c0 95 -27 194 -144 194c-108 0 -145 -105 -145 -206c0 -88 40 -185 145 -185c114 0 144 104 144 197zM489 308h285c0 88 -52 146 -141 146s-145 -61 -144 -146zM864 233h-375c-3 -90 48 -170 149 -170c68 0 120 37 140 101h81c-34 -117 -108 -176 -221 -176
c-87 0 -156 27 -188 102c-32 -75 -102 -102 -179 -102c-163 0 -235 123 -235 271c0 151 75 270 235 270c80 0 144 -19 179 -91c36 61 110 91 183 91c172 0 239 -133 231 -296z" />
    <glyph glyph-name="Racute" unicode="&#x154;" horiz-adv-x="685" 
d="M78 0v714h336c135 0 217 -72 217 -187c0 -87 -37 -157 -124 -181v-2c83 -16 99 -78 107 -147c5 -69 2 -149 42 -197h-106c-27 29 -12 106 -26 176c-11 69 -27 129 -119 129h-232v-305h-95zM173 385h198c88 0 165 23 165 127c0 71 -38 122 -127 122h-236v-249zM284 779
l86 143h109l-131 -143h-64z" />
    <glyph glyph-name="racute" unicode="&#x155;" horiz-adv-x="333" 
d="M61 0v517h80v-109h2c41 84 98 124 190 121v-90c-137 0 -187 -77 -187 -209v-230h-85zM80 589l86 143h109l-131 -143h-64z" />
    <glyph glyph-name="Rcommaaccent" unicode="&#x156;" horiz-adv-x="685" 
d="M78 0v714h336c135 0 217 -72 217 -187c0 -87 -37 -157 -124 -181v-2c83 -16 99 -78 107 -147c5 -69 2 -149 42 -197h-106c-27 29 -12 106 -26 176c-11 69 -27 129 -119 129h-232v-305h-95zM173 385h198c88 0 165 23 165 127c0 71 -38 122 -127 122h-236v-249zM295 -138
v88h111v-77c0 -57 -40 -83 -99 -83v35c41 11 40 25 40 37h-52z" />
    <glyph glyph-name="rcommaaccent" unicode="&#x157;" horiz-adv-x="333" 
d="M61 0v517h80v-109h2c41 84 98 124 190 121v-90c-137 0 -187 -77 -187 -209v-230h-85zM48 -138v88h111v-77c0 -57 -40 -83 -99 -83v35c41 11 40 25 40 37h-52z" />
    <glyph glyph-name="Rcaron" unicode="&#x158;" horiz-adv-x="685" 
d="M78 0v714h336c135 0 217 -72 217 -187c0 -87 -37 -157 -124 -181v-2c83 -16 99 -78 107 -147c5 -69 2 -149 42 -197h-106c-27 29 -12 106 -26 176c-11 69 -27 129 -119 129h-232v-305h-95zM173 385h198c88 0 165 23 165 127c0 71 -38 122 -127 122h-236v-249zM491 922
l-103 -143h-93l-104 143h84l69 -96l70 96h77z" />
    <glyph glyph-name="rcaron" unicode="&#x159;" horiz-adv-x="333" 
d="M61 0v517h80v-109h2c41 84 98 124 190 121v-90c-137 0 -187 -77 -187 -209v-230h-85zM343 732l-103 -143h-93l-104 143h84l69 -96l70 96h77z" />
    <glyph glyph-name="Sacute" unicode="&#x15a;" horiz-adv-x="648" 
d="M581 505h-90c-11 103 -78 146 -177 146c-81 0 -160 -29 -160 -122c0 -176 457 -52 457 -333c0 -152 -149 -213 -279 -213c-160 0 -295 79 -295 252h90c0 -120 100 -172 208 -172c86 0 181 27 181 130c0 196 -457 67 -457 329c0 144 128 209 259 209
c146 0 258 -69 263 -226zM281 779l86 143h109l-131 -143h-64z" />
    <glyph glyph-name="sacute" unicode="&#x15b;" horiz-adv-x="500" 
d="M31 163h85c3 -76 70 -100 139 -100c53 0 125 12 125 77c0 133 -338 43 -338 242c0 104 102 147 193 147c116 0 204 -36 212 -162h-85c-5 66 -65 87 -120 87c-51 0 -110 -14 -110 -66c0 -60 90 -72 169 -90c85 -19 169 -48 169 -147c0 -124 -115 -163 -220 -163
c-116 0 -214 47 -219 175zM204 589l86 143h109l-131 -143h-64z" />
    <glyph glyph-name="Scircumflex" unicode="&#x15c;" horiz-adv-x="648" 
d="M581 505h-90c-11 103 -78 146 -177 146c-81 0 -160 -29 -160 -122c0 -176 457 -52 457 -333c0 -152 -149 -213 -279 -213c-160 0 -295 79 -295 252h90c0 -120 100 -172 208 -172c86 0 181 27 181 130c0 196 -457 67 -457 329c0 144 128 209 259 209
c146 0 258 -69 263 -226zM175 779l103 143h93l104 -143h-84l-69 96l-70 -96h-77z" />
    <glyph glyph-name="scircumflex" unicode="&#x15d;" horiz-adv-x="500" 
d="M31 163h85c3 -76 70 -100 139 -100c53 0 125 12 125 77c0 133 -338 43 -338 242c0 104 102 147 193 147c116 0 204 -36 212 -162h-85c-5 66 -65 87 -120 87c-51 0 -110 -14 -110 -66c0 -60 90 -72 169 -90c85 -19 169 -48 169 -147c0 -124 -115 -163 -220 -163
c-116 0 -214 47 -219 175zM103 589l103 143h93l104 -143h-84l-69 96l-70 -96h-77z" />
    <glyph glyph-name="Scedilla" unicode="&#x15e;" horiz-adv-x="648" 
d="M199 -191l18 44c16 -7 40 -13 61 -13c27 0 62 8 62 31c0 19 -20 31 -47 31c-16 0 -26 -3 -41 -8l-17 28l49 64c-23 2 -45 6 -66 12c-105 30 -181 107 -181 237h90c0 -120 100 -172 208 -172c86 0 181 27 181 130c0 196 -457 67 -457 329c0 144 128 209 259 209
c146 0 258 -69 263 -226h-90c-11 103 -78 146 -177 146c-81 0 -160 -29 -160 -122c0 -176 457 -52 457 -333c0 -152 -149 -213 -279 -213h-8l-28 -36l2 -2c7 5 18 7 33 7c43 0 84 -24 84 -73c0 -67 -68 -89 -124 -89c-32 0 -61 8 -92 19z" />
    <glyph glyph-name="scedilla" unicode="&#x15f;" horiz-adv-x="500" 
d="M128 -191l18 44c16 -7 40 -13 61 -13c27 0 62 8 62 31c0 19 -20 31 -47 31c-16 0 -26 -3 -41 -8l-17 28l52 68c-17 1 -33 4 -49 8c-76 18 -132 69 -136 165h85c3 -76 70 -100 139 -100c53 0 125 12 125 77c0 133 -338 43 -338 242c0 104 102 147 193 147
c116 0 204 -36 212 -162h-85c-5 66 -65 87 -120 87c-51 0 -110 -14 -110 -66c0 -60 90 -72 169 -90c85 -19 169 -48 169 -147c0 -92 -64 -139 -142 -155c-23 -5 -47 -7 -71 -8l-32 -41l2 -2c7 5 18 7 33 7c43 0 84 -24 84 -73c0 -67 -68 -89 -124 -89c-32 0 -61 8 -92 19z
" />
    <glyph glyph-name="Scaron" unicode="&#x160;" horiz-adv-x="648" 
d="M581 505h-90c-11 103 -78 146 -177 146c-81 0 -160 -29 -160 -122c0 -176 457 -52 457 -333c0 -152 -149 -213 -279 -213c-160 0 -295 79 -295 252h90c0 -120 100 -172 208 -172c86 0 181 27 181 130c0 196 -457 67 -457 329c0 144 128 209 259 209
c146 0 258 -69 263 -226zM476 922l-103 -143h-93l-104 143h84l69 -96l70 96h77z" />
    <glyph glyph-name="scaron" unicode="&#x161;" horiz-adv-x="500" 
d="M31 163h85c3 -76 70 -100 139 -100c53 0 125 12 125 77c0 133 -338 43 -338 242c0 104 102 147 193 147c116 0 204 -36 212 -162h-85c-5 66 -65 87 -120 87c-51 0 -110 -14 -110 -66c0 -60 90 -72 169 -90c85 -19 169 -48 169 -147c0 -124 -115 -163 -220 -163
c-116 0 -214 47 -219 175zM403 732l-103 -143h-93l-104 143h84l69 -96l70 96h77z" />
    <glyph glyph-name="Tcommaaccent" unicode="&#x162;" horiz-adv-x="574" 
d="M240 0v634h-238v80h571v-80h-238v-634h-95zM231 -138v88h111v-77c0 -57 -40 -83 -99 -83v35c41 11 40 25 40 37h-52z" />
    <glyph glyph-name="tcommaaccent" unicode="&#x163;" horiz-adv-x="315" 
d="M182 672v-155h103v-75h-103v-321c0 -40 11 -46 64 -46h39v-75h-65c-88 0 -123 18 -123 113v329h-88v75h88v155h85zM130 -138v88h111v-77c0 -57 -40 -83 -99 -83v35c41 11 40 25 40 37h-52z" />
    <glyph glyph-name="Tcaron" unicode="&#x164;" horiz-adv-x="574" 
d="M240 0v634h-238v80h571v-80h-238v-634h-95zM435 922l-103 -143h-93l-104 143h84l69 -96l70 96h77z" />
    <glyph glyph-name="tcaron" unicode="&#x165;" horiz-adv-x="363" 
d="M280 571l26 143h109l-75 -143h-60zM182 672v-155h103v-75h-103v-321c0 -40 11 -46 64 -46h39v-75h-65c-88 0 -123 18 -123 113v329h-88v75h88v155h85z" />
    <glyph glyph-name="Tbar" unicode="&#x166;" horiz-adv-x="574" 
d="M98 431v55h142v148h-238v80h571v-80h-238v-148h144v-55h-144v-431h-95v431h-142z" />
    <glyph glyph-name="tbar" unicode="&#x167;" horiz-adv-x="315" 
d="M-1 291v55h98v96h-88v75h88v155h85v-155h103v-75h-103v-96h113v-55h-113v-170c0 -40 11 -46 64 -46h39v-75h-65c-88 0 -123 18 -123 113v178h-98z" />
    <glyph glyph-name="Utilde" unicode="&#x168;" horiz-adv-x="722" 
d="M648 714v-456c0 -181 -102 -275 -281 -275c-184 0 -293 85 -293 275v456h95v-456c0 -127 71 -195 198 -195c121 0 186 68 186 195v456h95zM482 907h52c-4 -29 -15 -56 -32 -79c-17 -21 -38 -32 -69 -32c-28 0 -51 9 -75 20c-24 9 -47 19 -66 19c-11 0 -23 -4 -31 -12
c-8 -7 -11 -13 -18 -30h-52c13 61 43 110 106 110c53 0 96 -40 139 -40c24 0 38 17 46 44z" />
    <glyph glyph-name="utilde" unicode="&#x169;" 
d="M492 517v-517h-80v82h-2c-36 -64 -93 -94 -168 -94c-136 0 -178 78 -178 189v340h85v-350c0 -64 40 -104 105 -104c103 0 153 69 153 162v292h85zM398 717h52c-4 -29 -15 -56 -32 -79c-17 -21 -38 -32 -69 -32c-28 0 -51 9 -75 20c-24 9 -47 19 -66 19
c-11 0 -23 -4 -31 -12c-8 -7 -11 -13 -18 -30h-52c13 61 43 110 106 110c53 0 96 -40 139 -40c24 0 38 17 46 44z" />
    <glyph glyph-name="Umacron" unicode="&#x16a;" horiz-adv-x="722" 
d="M648 714v-456c0 -181 -102 -275 -281 -275c-184 0 -293 85 -293 275v456h95v-456c0 -127 71 -195 198 -195c121 0 186 68 186 195v456h95zM192 817v55h341v-55h-341z" />
    <glyph glyph-name="umacron" unicode="&#x16b;" 
d="M492 517v-517h-80v82h-2c-36 -64 -93 -94 -168 -94c-136 0 -178 78 -178 189v340h85v-350c0 -64 40 -104 105 -104c103 0 153 69 153 162v292h85zM112 627v55h341v-55h-341z" />
    <glyph glyph-name="Ubreve" unicode="&#x16c;" horiz-adv-x="722" 
d="M648 714v-456c0 -181 -102 -275 -281 -275c-184 0 -293 85 -293 275v456h95v-456c0 -127 71 -195 198 -195c121 0 186 68 186 195v456h95zM200 919h50c16 -55 53 -83 112 -83c57 0 79 32 99 83h51c-15 -85 -70 -138 -158 -138c-92 0 -141 49 -154 138z" />
    <glyph glyph-name="ubreve" unicode="&#x16d;" 
d="M492 517v-517h-80v82h-2c-36 -64 -93 -94 -168 -94c-136 0 -178 78 -178 189v340h85v-350c0 -64 40 -104 105 -104c103 0 153 69 153 162v292h85zM122 729h50c16 -55 53 -83 112 -83c57 0 79 32 99 83h51c-15 -85 -70 -138 -158 -138c-92 0 -141 49 -154 138z" />
    <glyph glyph-name="Uring" unicode="&#x16e;" horiz-adv-x="722" 
d="M648 714v-456c0 -181 -102 -275 -281 -275c-184 0 -293 85 -293 275v456h95v-456c0 -127 71 -195 198 -195c121 0 186 68 186 195v456h95zM247 861c0 62 52 112 113 112s113 -50 113 -112s-52 -112 -113 -112s-113 50 -113 112zM293 860c0 -39 28 -68 67 -68s67 29 67 68
s-28 68 -67 68s-67 -29 -67 -68z" />
    <glyph glyph-name="uring" unicode="&#x16f;" 
d="M492 517v-517h-80v82h-2c-36 -64 -93 -94 -168 -94c-136 0 -178 78 -178 189v340h85v-350c0 -64 40 -104 105 -104c103 0 153 69 153 162v292h85zM165 681c0 62 52 112 113 112s113 -50 113 -112s-52 -112 -113 -112s-113 50 -113 112zM211 680c0 -39 28 -68 67 -68
s67 29 67 68s-28 68 -67 68s-67 -29 -67 -68z" />
    <glyph glyph-name="Uhungarumlaut" unicode="&#x170;" horiz-adv-x="722" 
d="M648 714v-456c0 -181 -102 -275 -281 -275c-184 0 -293 85 -293 275v456h95v-456c0 -127 71 -195 198 -195c121 0 186 68 186 195v456h95zM404 779l81 143h105l-120 -143h-66zM248 779l81 143h105l-120 -143h-66z" />
    <glyph glyph-name="uhungarumlaut" unicode="&#x171;" 
d="M492 517v-517h-80v82h-2c-36 -64 -93 -94 -168 -94c-136 0 -178 78 -178 189v340h85v-350c0 -64 40 -104 105 -104c103 0 153 69 153 162v292h85zM319 589l81 143h105l-120 -143h-66zM163 589l81 143h105l-120 -143h-66z" />
    <glyph glyph-name="Uogonek" unicode="&#x172;" horiz-adv-x="722" 
d="M648 714v-456c0 -91 -25 -159 -74 -206c-43 -41 -102 -63 -177 -68c-9 -8 -16 -15 -23 -22c-33 -33 -42 -59 -42 -80s11 -42 38 -42c31 0 47 11 62 30l32 -18c-27 -47 -67 -62 -108 -62c-24 0 -92 2 -92 82c0 15 8 45 53 88c9 8 19 16 31 23c-39 1 -74 7 -105 16
c-107 32 -169 118 -169 259v456h95v-456c0 -127 71 -195 198 -195c121 0 186 68 186 195v456h95z" />
    <glyph glyph-name="uogonek" unicode="&#x173;" 
d="M492 0h-40c-68 -57 -84 -88 -84 -118c0 -21 11 -42 38 -42c31 0 47 11 62 30l32 -18c-27 -47 -67 -62 -108 -62c-24 0 -92 2 -92 82c0 16 14 74 112 128v82h-2c-36 -64 -93 -94 -168 -94c-136 0 -178 78 -178 189v340h85v-350c0 -64 40 -104 105 -104
c103 0 153 69 153 162v292h85v-517z" />
    <glyph glyph-name="Wcircumflex" unicode="&#x174;" horiz-adv-x="926" 
d="M914 714l-191 -714h-99l-163 600h-2l-165 -600h-99l-183 714h97l140 -594h2l160 594h103l158 -594h2l145 594h95zM313 779l103 143h93l104 -143h-84l-69 96l-70 -96h-77z" />
    <glyph glyph-name="wcircumflex" unicode="&#x175;" horiz-adv-x="758" 
d="M741 517l-165 -517h-90l-105 411h-2l-104 -411h-92l-166 517h94l117 -423h2l104 423h93l108 -423h2l116 423h88zM233 589l103 143h93l104 -143h-84l-69 96l-70 -96h-77z" />
    <glyph glyph-name="Ycircumflex" unicode="&#x176;" horiz-adv-x="648" 
d="M646 714l-273 -422v-292h-95v292l-276 422h113l214 -340l209 340h108zM179 779l103 143h93l104 -143h-84l-69 96l-70 -96h-77z" />
    <glyph glyph-name="ycircumflex" unicode="&#x177;" horiz-adv-x="500" 
d="M492 517l-225 -586c-40 -100 -74 -138 -150 -138c-20 0 -40 2 -59 9v78c16 -5 33 -12 50 -12c35 0 54 16 70 47l35 88l-205 514h96l151 -423h2l145 423h90zM106 589l103 143h93l104 -143h-84l-69 96l-70 -96h-77z" />
    <glyph glyph-name="Ydieresis" unicode="&#x178;" horiz-adv-x="648" 
d="M646 714l-273 -422v-292h-95v292l-276 422h113l214 -340l209 340h108zM189 792v104h90v-104h-90zM377 792v104h90v-104h-90z" />
    <glyph glyph-name="Zacute" unicode="&#x179;" horiz-adv-x="611" 
d="M22 0v80l444 554h-410v80h522v-80l-443 -554h455v-80h-568zM271 779l86 143h109l-131 -143h-64z" />
    <glyph glyph-name="zacute" unicode="&#x17a;" horiz-adv-x="480" 
d="M22 0v65l312 377h-292v75h402v-58l-316 -384h330v-75h-436zM205 589l86 143h109l-131 -143h-64z" />
    <glyph glyph-name="Zdotaccent" unicode="&#x17b;" horiz-adv-x="611" 
d="M22 0v80l444 554h-410v80h522v-80l-443 -554h455v-80h-568zM359 898v-104h-90v104h90z" />
    <glyph glyph-name="zdotaccent" unicode="&#x17c;" horiz-adv-x="480" 
d="M22 0v65l312 377h-292v75h402v-58l-316 -384h330v-75h-436zM290 708v-104h-90v104h90z" />
    <glyph glyph-name="Zcaron" unicode="&#x17d;" horiz-adv-x="611" 
d="M22 0v80l444 554h-410v80h522v-80l-443 -554h455v-80h-568zM463 922l-103 -143h-93l-104 143h84l69 -96l70 96h77z" />
    <glyph glyph-name="zcaron" unicode="&#x17e;" horiz-adv-x="480" 
d="M22 0v65l312 377h-292v75h402v-58l-316 -384h330v-75h-436zM391 732l-103 -143h-93l-104 143h84l69 -96l70 96h77z" />
    <glyph glyph-name="florin" unicode="&#x192;" 
d="M492 714l-14 -75h-59c-36 0 -54 -17 -62 -52l-31 -138h102l-14 -68h-100l-55 -311c-32 -182 -79 -235 -190 -235h-66l14 75c104 0 123 10 139 102l70 369h-92l13 68h91l26 136c15 76 69 129 154 129h74z" />
    <glyph glyph-name="Scommaaccent" unicode="&#x218;" horiz-adv-x="648" 
d="M581 505h-90c-11 103 -78 146 -177 146c-81 0 -160 -29 -160 -122c0 -176 457 -52 457 -333c0 -152 -149 -213 -279 -213c-160 0 -295 79 -295 252h90c0 -120 100 -172 208 -172c86 0 181 27 181 130c0 196 -457 67 -457 329c0 144 128 209 259 209
c146 0 258 -69 263 -226zM270 -138v88h111v-77c0 -57 -40 -83 -99 -83v35c41 11 40 25 40 37h-52z" />
    <glyph glyph-name="scommaaccent" unicode="&#x219;" horiz-adv-x="500" 
d="M31 163h85c3 -76 70 -100 139 -100c53 0 125 12 125 77c0 133 -338 43 -338 242c0 104 102 147 193 147c116 0 204 -36 212 -162h-85c-5 66 -65 87 -120 87c-51 0 -110 -14 -110 -66c0 -60 90 -72 169 -90c85 -19 169 -48 169 -147c0 -124 -115 -163 -220 -163
c-116 0 -214 47 -219 175zM196 -138v88h111v-77c0 -57 -40 -83 -99 -83v35c41 11 40 25 40 37h-52z" />
    <glyph glyph-name="uni021A" unicode="&#x21a;" horiz-adv-x="574" 
d="M240 0v634h-238v80h571v-80h-238v-634h-95zM231 -138v88h111v-77c0 -57 -40 -83 -99 -83v35c41 11 40 25 40 37h-52z" />
    <glyph glyph-name="uni021B" unicode="&#x21b;" horiz-adv-x="315" 
d="M182 672v-155h103v-75h-103v-321c0 -40 11 -46 64 -46h39v-75h-65c-88 0 -123 18 -123 113v329h-88v75h88v155h85zM130 -138v88h111v-77c0 -57 -40 -83 -99 -83v35c41 11 40 25 40 37h-52z" />
    <glyph glyph-name="circumflex" unicode="&#x2c6;" horiz-adv-x="222" 
d="M-39 589l103 143h93l104 -143h-84l-69 96l-70 -96h-77z" />
    <glyph glyph-name="caron" unicode="&#x2c7;" horiz-adv-x="222" 
d="M261 732l-103 -143h-93l-104 143h84l69 -96l70 96h77z" />
    <glyph glyph-name="uni02C9" unicode="&#x2c9;" horiz-adv-x="222" 
d="M-59 627v55h341v-55h-341z" />
    <glyph glyph-name="breve" unicode="&#x2d8;" horiz-adv-x="222" 
d="M-45 729h50c16 -55 53 -83 112 -83c57 0 79 32 99 83h51c-15 -85 -70 -138 -158 -138c-92 0 -141 49 -154 138z" />
    <glyph glyph-name="dotaccent" unicode="&#x2d9;" horiz-adv-x="222" 
d="M156 708v-104h-90v104h90z" />
    <glyph glyph-name="ring" unicode="&#x2da;" horiz-adv-x="222" 
d="M-2 681c0 62 52 112 113 112s113 -50 113 -112s-52 -112 -113 -112s-113 50 -113 112zM44 680c0 -39 28 -68 67 -68s67 29 67 68s-28 68 -67 68s-67 -29 -67 -68z" />
    <glyph glyph-name="ogonek" unicode="&#x2db;" horiz-adv-x="222" 
d="M188 0h40c-68 -57 -84 -88 -84 -118c0 -21 11 -42 38 -42c31 0 47 11 62 30l32 -18c-27 -47 -67 -62 -108 -62c-24 0 -92 2 -92 82c0 16 14 74 112 128z" />
    <glyph glyph-name="tilde" unicode="&#x2dc;" horiz-adv-x="222" 
d="M233 717h52c-4 -29 -15 -56 -32 -79c-17 -21 -38 -32 -69 -32c-28 0 -51 9 -75 20c-24 9 -47 19 -66 19c-11 0 -23 -4 -31 -12c-8 -7 -11 -13 -18 -30h-52c13 61 43 110 106 110c53 0 96 -40 139 -40c24 0 38 17 46 44z" />
    <glyph glyph-name="hungarumlaut" unicode="&#x2dd;" horiz-adv-x="222" 
d="M108 589l81 143h105l-120 -143h-66zM-48 589l81 143h105l-120 -143h-66z" />
    <glyph glyph-name="uni0394" unicode="&#x394;" horiz-adv-x="674" 
d="M550 72l-217 556l-213 -556h430zM662 0h-649l279 712h83z" />
    <glyph glyph-name="uni03A9" unicode="&#x3a9;" horiz-adv-x="748" 
d="M688 0h-256v183c116 23 176 111 176 227c0 138 -101 239 -240 239c-137 0 -241 -102 -241 -239c0 -113 61 -208 177 -227v-183h-257v67h193v72c-124 34 -193 149 -193 274c0 180 146 308 321 308s320 -126 320 -306c0 -127 -67 -241 -192 -276v-72h192v-67z" />
    <glyph glyph-name="uni03BC" unicode="&#x3bc;" 
d="M492 517v-517h-80v82h-2c-36 -64 -93 -94 -168 -94c-43 0 -74 11 -91 38h-2v-224h-85v715h85v-350c0 -64 40 -104 105 -104c103 0 153 69 153 162v292h85z" />
    <glyph glyph-name="pi" unicode="&#x3c0;" horiz-adv-x="570" 
d="M547 68v-57c-23 -11 -42 -17 -69 -17c-81 0 -86 55 -86 120v296h-246v-410h-75v410h-69v69h541v-69h-76v-299c0 -29 3 -53 38 -53c13 0 27 3 42 10z" />
    <glyph glyph-name="endash" unicode="&#x2013;" horiz-adv-x="500" 
d="M0 238v80h500v-80h-500z" />
    <glyph glyph-name="emdash" unicode="&#x2014;" horiz-adv-x="1000" 
d="M130 238v80h740v-80h-740z" />
    <glyph glyph-name="quoteleft" unicode="&#x2018;" horiz-adv-x="278" 
d="M195 567v-111h-111v111c0 79 34 147 110 147v-50c-45 0 -58 -51 -58 -97h59z" />
    <glyph glyph-name="quoteright" unicode="&#x2019;" horiz-adv-x="278" 
d="M83 603v111h111v-111c0 -79 -34 -147 -110 -147v50c45 0 58 51 58 97h-59z" />
    <glyph glyph-name="quotesinglbase" unicode="&#x201a;" horiz-adv-x="278" 
d="M83 0v111h111v-111c0 -79 -34 -147 -110 -147v50c45 0 58 51 58 97h-59z" />
    <glyph glyph-name="quotedblleft" unicode="&#x201c;" horiz-adv-x="426" 
d="M177 567v-111h-111v111c0 79 34 147 110 147v-50c-45 0 -58 -51 -58 -97h59zM360 567v-111h-111v111c0 79 34 147 110 147v-50c-45 0 -58 -51 -58 -97h59z" />
    <glyph glyph-name="quotedblright" unicode="&#x201d;" horiz-adv-x="426" 
d="M66 603v111h111v-111c0 -79 -34 -147 -110 -147v50c45 0 58 51 58 97h-59zM249 603v111h111v-111c0 -79 -34 -147 -110 -147v50c45 0 58 51 58 97h-59z" />
    <glyph glyph-name="quotedblbase" unicode="&#x201e;" horiz-adv-x="426" 
d="M249 0v111h111v-111c0 -79 -34 -147 -110 -147v50c45 0 58 51 58 97h-59zM66 0v111h111v-111c0 -79 -34 -147 -110 -147v50c45 0 58 51 58 97h-59z" />
    <glyph glyph-name="dagger" unicode="&#x2020;" 
d="M236 -155v597h-194v75h194v197h80v-197h198v-75h-198v-597h-80z" />
    <glyph glyph-name="daggerdbl" unicode="&#x2021;" 
d="M236 -155v197h-194v75h194v325h-194v75h194v197h80v-197h198v-75h-198v-325h198v-75h-198v-197h-80z" />
    <glyph glyph-name="bullet" unicode="&#x2022;" horiz-adv-x="500" 
d="M72 357c0 99 79 178 178 178s179 -79 179 -178s-80 -179 -179 -179s-178 80 -178 179z" />
    <glyph glyph-name="ellipsis" unicode="&#x2026;" horiz-adv-x="1000" 
d="M777 0v111h111v-111h-111zM444 0v111h111v-111h-111zM111 0v111h111v-111h-111z" />
    <glyph glyph-name="perthousand" unicode="&#x2030;" horiz-adv-x="1148" 
d="M857 158c0 -52 10 -115 72 -115c59 0 72 65 72 114c0 44 -11 117 -68 117c-60 0 -76 -65 -76 -116zM782 155c0 97 40 174 148 174c106 0 146 -73 146 -169c0 -45 -11 -91 -40 -127c-27 -33 -67 -45 -108 -45c-104 0 -146 71 -146 167zM512 158c0 -52 10 -115 72 -115
c59 0 72 65 72 114c0 44 -11 117 -68 117c-60 0 -76 -65 -76 -116zM437 155c0 97 40 174 148 174c106 0 146 -73 146 -169c0 -45 -11 -91 -40 -127c-27 -33 -67 -45 -108 -45c-104 0 -146 71 -146 167zM90 -22l538 744h85l-537 -744h-86zM147 538c0 -52 10 -115 72 -115
c59 0 72 65 72 114c0 44 -11 117 -68 117c-60 0 -76 -65 -76 -116zM72 535c0 97 40 174 148 174c106 0 146 -73 146 -169c0 -45 -11 -91 -40 -127c-27 -33 -67 -45 -108 -45c-104 0 -146 71 -146 167z" />
    <glyph glyph-name="guilsinglleft" unicode="&#x2039;" horiz-adv-x="259" 
d="M202 114l-152 120v88l152 120v-86l-100 -78l100 -78v-86z" />
    <glyph glyph-name="guilsinglright" unicode="&#x203a;" horiz-adv-x="259" 
d="M57 442l152 -120v-88l-152 -120v86l100 78l-100 78v86z" />
    <glyph glyph-name="fraction" unicode="&#x2044;" horiz-adv-x="167" 
d="M-166 -28l435 753h64l-435 -753h-64z" />
    <glyph glyph-name="Euro" unicode="&#x20ac;" 
d="M558 662l-46 -83c-47 46 -95 69 -143 69c-50 0 -91 -21 -124 -64c-26 -34 -45 -79 -56 -134h283l-27 -61h-263c-1 -5 -1 -11 -1 -16v-15v-11c0 -3 0 -7 1 -10h249l-26 -61h-218c22 -143 85 -215 190 -215c32 0 60 6 85 19c18 9 41 27 69 53v-105
c-45 -29 -97 -44 -154 -44c-163 0 -259 97 -287 292h-77l27 61h46c-1 3 -1 7 -1 10v10v17c0 5 0 10 1 15h-73l26 61h54c16 82 46 147 91 194c50 54 114 81 193 81c61 0 121 -21 181 -63z" />
    <glyph glyph-name="afii61289" unicode="&#x2113;" horiz-adv-x="500" 
d="M415 41c-40 -37 -83 -55 -130 -55c-73 0 -127 42 -127 128v114l-58 -62h-2l-26 37l86 84v259c0 111 57 175 129 175c64 0 110 -48 110 -128c0 -98 -60 -204 -171 -318v-150c0 -69 41 -87 75 -87c27 0 58 11 88 38h2zM340 588c0 51 -23 85 -53 85c-31 0 -61 -36 -61 -116
v-222c74 86 114 178 114 253z" />
    <glyph glyph-name="trademark" unicode="&#x2122;" horiz-adv-x="990" 
d="M927 714v-412h-68v344h-2l-135 -344h-43l-135 344h-2v-344h-68v412h105l123 -313l121 313h104zM390 714v-55h-129v-357h-68v357h-129v55h326z" />
    <glyph glyph-name="Omega" unicode="&#x2126;" horiz-adv-x="748" 
d="M688 0h-256v183c116 23 176 111 176 227c0 138 -101 239 -240 239c-137 0 -241 -102 -241 -239c0 -113 61 -208 177 -227v-183h-257v67h193v72c-124 34 -193 149 -193 274c0 180 146 308 321 308s320 -126 320 -306c0 -127 -67 -241 -192 -276v-72h192v-67z" />
    <glyph glyph-name="estimated" unicode="&#x212e;" horiz-adv-x="600" 
d="M561 259h-404v-181c39 -39 87 -59 145 -59c83 0 143 36 193 120l35 -21c-61 -95 -123 -135 -228 -135c-157 0 -258 122 -258 276c0 155 101 276 258 276c154 0 258 -114 259 -276zM157 295h291v145c-42 40 -91 60 -147 60c-57 0 -105 -21 -144 -60v-145z" />
    <glyph glyph-name="partialdiff" unicode="&#x2202;" horiz-adv-x="511" 
d="M389 280c-35 47 -88 85 -148 85c-89 0 -134 -75 -134 -155c0 -77 43 -162 132 -162c111 0 150 143 150 232zM469 362c0 -153 -34 -374 -232 -374c-126 0 -204 105 -204 225c0 117 75 214 199 214c63 0 121 -29 161 -76c0 15 1 30 1 45c0 107 -41 262 -173 262
c-45 0 -79 -20 -114 -47l-42 50c44 39 93 60 153 60c196 0 251 -198 251 -359z" />
    <glyph glyph-name="Delta" unicode="&#x2206;" horiz-adv-x="674" 
d="M550 72l-217 556l-213 -556h430zM662 0h-649l279 712h83z" />
    <glyph glyph-name="product" unicode="&#x220f;" horiz-adv-x="719" 
d="M650 -214h-78v928h-426v-928h-78v1000h582v-1000z" />
    <glyph glyph-name="summation" unicode="&#x2211;" horiz-adv-x="615" 
d="M589 -214h-564v64l322 440l-308 432v64h538v-72h-437l301 -424l-319 -432h467v-72z" />
    <glyph glyph-name="minus" unicode="&#x2212;" horiz-adv-x="600" 
d="M48 219v68h504v-68h-504z" />
    <glyph glyph-name="uni2215" unicode="&#x2215;" horiz-adv-x="167" 
d="M-166 -28l435 753h64l-435 -753h-64z" />
    <glyph glyph-name="uni2219" unicode="&#x2219;" horiz-adv-x="278" 
d="M75 311c0 35 29 64 64 64s64 -29 64 -64c0 -32 -30 -64 -63 -64c-35 0 -65 29 -65 64z" />
    <glyph glyph-name="radical" unicode="&#x221a;" horiz-adv-x="504" 
d="M514 786l-211 -1000h-75l-162 334l-47 -22l-28 60l112 52l151 -317l184 893h76z" />
    <glyph glyph-name="infinity" unicode="&#x221e;" horiz-adv-x="759" 
d="M337 251c-37 34 -96 90 -150 90c-51 0 -80 -42 -80 -89c0 -51 31 -86 83 -86c54 0 111 49 147 85zM652 252c0 51 -29 90 -82 90c-56 0 -109 -56 -147 -91c42 -39 88 -85 150 -85c51 0 79 38 79 86zM717 255c0 -88 -55 -157 -147 -157c-76 0 -140 56 -190 109
c-57 -51 -110 -108 -191 -108c-89 0 -147 65 -147 153c0 85 54 156 145 156c81 0 139 -60 193 -114c53 53 108 116 189 116c90 0 148 -68 148 -155z" />
    <glyph glyph-name="integral" unicode="&#x222b;" horiz-adv-x="554" 
d="M420 730c0 -24 -19 -38 -42 -38c-32 0 -40 43 -56 43c-41 0 -30 -126 -30 -141l1 -39v-511c0 -92 6 -257 -126 -257c-30 0 -69 16 -69 52c0 19 18 36 37 36c31 0 38 -42 52 -42c36 0 28 139 28 151v22v495c0 96 -21 285 126 285c35 0 79 -15 79 -56z" />
    <glyph glyph-name="approxequal" unicode="&#x2248;" horiz-adv-x="593" 
d="M510 234h50c-8 -75 -44 -145 -129 -145s-206 72 -272 72c-43 0 -70 -39 -75 -78h-52c11 72 44 148 129 148c87 0 195 -71 274 -71c45 0 67 34 75 74zM511 415h50c-8 -75 -45 -146 -130 -146c-87 0 -204 71 -271 71c-43 0 -69 -38 -76 -77h-51c8 72 44 148 129 148
c86 0 195 -71 274 -71c45 0 67 35 75 75z" />
    <glyph glyph-name="notequal" unicode="&#x2260;" horiz-adv-x="593" 
d="M550 114h-287l-76 -146l-62 32l59 114h-141v72h178l67 127h-245v71h283l77 148l62 -32l-61 -116h146v-71h-183l-67 -127h250v-72z" />
    <glyph glyph-name="lessequal" unicode="&#x2264;" horiz-adv-x="593" 
d="M550 -30h-507v72h507v-72zM550 82l-507 184v75l507 187v-78l-408 -146l408 -145v-77z" />
    <glyph glyph-name="greaterequal" unicode="&#x2265;" horiz-adv-x="593" 
d="M550 -30h-507v72h507v-72zM550 266l-507 -184v77l408 145l-408 146v78l507 -187v-75z" />
    <glyph glyph-name="lozenge" unicode="&#x25ca;" horiz-adv-x="593" 
d="M428 356l-132 315l-131 -315l131 -315zM504 356l-172 -391h-72l-171 391l171 391h72z" />
    <glyph glyph-name="dotlessj" unicode="&#xe0d6;" horiz-adv-x="222" 
d="M154 517v-583c0 -92 -48 -132 -124 -132c-15 0 -29 1 -44 4v73c6 -1 12 -2 17 -2h18c37 0 48 18 48 71v569h85z" />
    <glyph glyph-name="grave.cap" unicode="&#xe300;" horiz-adv-x="222" 
d="M108 779l-131 143h109l86 -143h-64z" />
    <glyph glyph-name="acute.cap" unicode="&#xe301;" horiz-adv-x="222" 
d="M50 779l86 143h109l-131 -143h-64z" />
    <glyph glyph-name="circumflex.cap" unicode="&#xe302;" horiz-adv-x="222" 
d="M-39 779l103 143h93l104 -143h-84l-69 96l-70 -96h-77z" />
    <glyph glyph-name="caron.cap" unicode="&#xe303;" horiz-adv-x="222" 
d="M261 922l-103 -143h-93l-104 143h84l69 -96l70 96h77z" />
    <glyph glyph-name="tilde.cap" unicode="&#xe304;" horiz-adv-x="222" 
d="M233 907h52c-4 -29 -15 -56 -32 -79c-17 -21 -38 -32 -69 -32c-28 0 -51 9 -75 20c-24 9 -47 19 -66 19c-11 0 -23 -4 -31 -12c-8 -7 -11 -13 -18 -30h-52c13 61 43 110 106 110c53 0 96 -40 139 -40c24 0 38 17 46 44z" />
    <glyph glyph-name="dieresis.cap" unicode="&#xe305;" horiz-adv-x="222" 
d="M-28 793v104h90v-104h-90zM160 793v104h90v-104h-90z" />
    <glyph glyph-name="macron.cap" unicode="&#xe306;" horiz-adv-x="222" 
d="M-59 817v55h341v-55h-341z" />
    <glyph glyph-name="breve.cap" unicode="&#xe307;" horiz-adv-x="222" 
d="M-45 919h50c16 -55 53 -83 112 -83c57 0 79 32 99 83h51c-15 -85 -70 -138 -158 -138c-92 0 -141 49 -154 138z" />
    <glyph glyph-name="ring.cap" unicode="&#xe308;" horiz-adv-x="222" 
d="M-2 861c0 62 52 112 113 112s113 -50 113 -112s-52 -112 -113 -112s-113 50 -113 112zM44 860c0 -39 28 -68 67 -68s67 29 67 68s-28 68 -67 68s-67 -29 -67 -68z" />
    <glyph glyph-name="hungarumlaut.cap" unicode="&#xe309;" horiz-adv-x="222" 
d="M108 779l81 143h105l-120 -143h-66zM-48 779l81 143h105l-120 -143h-66z" />
    <glyph glyph-name="dotaccent.cap" unicode="&#xe30a;" horiz-adv-x="222" 
d="M156 897v-104h-90v104h90z" />
    <glyph glyph-name="caron.alt" unicode="&#xe30b;" horiz-adv-x="222" 
d="M80 571l26 143h109l-75 -143h-60z" />
    <glyph glyph-name="commaaccent" unicode="&#xe30c;" horiz-adv-x="278" 
d="M81 -138v88h111v-77c0 -57 -40 -83 -99 -83v35c41 11 40 25 40 37h-52z" />
    <glyph glyph-name="commaaccent.alt" unicode="&#xe30d;" horiz-adv-x="278" 
d="M194 714v-88h-111v77c0 57 40 83 99 83v-35c-41 -11 -40 -25 -40 -37h52z" />
    <glyph glyph-name="uniF8FF" unicode="&#xf8ff;" horiz-adv-x="512" 
d="M222 117h56v67h-56v-67zM225 234h46c0 35 2 59 6 72s18 30 43 52c51 47 63 77 63 120c0 79 -53 131 -124 131c-72 0 -126 -42 -135 -137l50 -8c8 68 41 95 82 95s76 -37 76 -85c0 -25 -7 -42 -50 -83c-22 -22 -37 -42 -46 -59s-13 -44 -13 -81zM462 50h-412v617h412v-617
zM512 718h-512v-718h512v718z" />
    </font>
</defs>
</svg>
